请选择 进入手机版 | 继续访问电脑版

YMLY-影迷乐园-特效字幕 蓝光原盘 1080P 高清动漫电影电视剧

 找回密码
 立即注册
搜索
查看: 99|回复: 6

[大陆] [百度][1994][720P][三国演义][国语中字][唐国强.鲍国安][84集全][MKV][133.27GB][CCTV8]

[复制链接]
  • TA的每日心情
    开心
    前天 10:12
  • 签到天数: 19 天

    [LV.4]偶尔看看III

    3

    主题

    128

    帖子

    15

    积分

    入门影迷

    Rank: 1

    积分
    15
    发表于 2020-8-1 16:20:29 | 显示全部楼层 |阅读模式

    ◎中 文 名 三国演义
    ◎外 文 名 Romance of The Three Kingdoms
    ◎制片公司 中国电视剧制作中心、中央电视台
    ◎首播时间 1994年10月23日
    ◎主    演 孙彦军,唐国强,鲍国安,吴晓东,陆树铭,李靖飞,洪宇宙,魏宗万,张光北
    ◎集    数 84集
    ◎单集片长 45分钟
    ◎类    型 古装,历史,战争,剧情
    ◎语    言 国语
    ◎字    幕 简体字幕
    ◎剧情简介
           东汉末年,山河动荡,刘汉王朝气数将尽。内有十常侍颠倒黑白,祸乱朝纲;外有张氏兄弟高呼“苍天当死,黄天当立”的口号,掀起浩大的农民起义。一时间狼烟四起,战火熊熊,刘家的朝廷宛如大厦将倾,岌岌可危。正所谓乱世出英雄,曹操、公孙瓒、袁术、袁绍、吕布、刘备、孙策、关羽、张飞、诸葛亮等各路豪杰不断涌现,从群雄逐鹿到赤壁之战,从魏蜀吴三国鼎立到三分归一统,波澜壮阔的三国时代的大幕缓缓拉开……


    1. General
    2. Unique ID                      : 234447925557199422924667893191419148041 (0xB061072C840ED9CEB2720DAAFE20B709)
    3. Complete name                  : D:CCTV8.Romance.of.the.Three.Kingdoms.1994.E01桃园三结义.720p.HDTV.x264-HDCTV.mkv
    4. Format                         : Matroska
    5. Format version                 : Version 4
    6. File size                      : 1.60 GiB
    7. Duration                       : 46 min 23 s
    8. Overall bit rate               : 4 949 kb/s
    9. Encoded date                   : UTC 2018-02-17 17:17:19
    10. Writing application            : mkvmerge v7.0.0 ('Where We Going') 32bit built on Jun  9 2014 15:08:34
    11. Writing library                : libebml v1.3.0 + libmatroska v1.4.1

    12. Video
    13. ID                             : 1
    14. Format                         : AVC
    15. Format/Info                    : Advanced Video Codec
    16. Format profile                 : [url=mailto:High@L4.1]High@L4.1[/url]
    17. Format settings                : CABAC / 9 Ref Frames
    18. Format settings, CABAC         : Yes
    19. Format settings, Reference fra : 9 frames
    20. Codec ID                       : V_MPEG4/ISO/AVC
    21. Duration                       : 46 min 23 s
    22. Bit rate                       : 4 500 kb/s
    23. Width                          : 1 280 pixels
    24. Height                         : 720 pixels
    25. Display aspect ratio           : 16:9
    26. Frame rate mode                : Constant
    27. Frame rate                     : 25.000 FPS
    28. Color space                    : YUV
    29. Chroma subsampling             : 4:2:0
    30. Bit depth                      : 8 bits
    31. Scan type                      : Progressive
    32. Bits/(Pixel*Frame)             : 0.195
    33. Stream size                    : 1.46 GiB (91%)
    34. Title                          : HDCTV
    35. Language                       : English
    36. Default                        : Yes
    37. Forced                         : No

    38. Audio
    39. ID                             : 2
    40. Format                         : AC-3
    41. Format/Info                    : Audio Coding 3
    42. Commercial name                : Dolby Digital
    43. Codec ID                       : A_AC3
    44. Duration                       : 46 min 23 s
    45. Bit rate mode                  : Constant
    46. Bit rate                       : 448 kb/s
    47. Channel(s)                     : 6 channels
    48. Channel layout                 : L R C LFE Ls Rs
    49. Sampling rate                  : 48.0 kHz
    50. Frame rate                     : 31.250 FPS (1536 SPF)
    51. Compression mode               : Lossy
    52. Stream size                    : 149 MiB (9%)
    53. Service kind                   : Complete Main
    54. Default                        : Yes
    55. Forced                         : No
    复制代码










    购买主题 已有 3 人购买  本主题需向作者支付 50 大洋 才能浏览
    回复

    使用道具 举报

  • TA的每日心情
    慵懒
    11 小时前
  • 签到天数: 146 天

    [LV.7]常住居民III

    201

    主题

    672

    帖子

    1717

    积分

    超级版主

    Rank: 16Rank: 16Rank: 16Rank: 16

    积分
    1717

    超版勋章版主勋章土豪勋章小土豪勋章最佳新人十二生肖之猴双鱼座勋章百分百好孩子精华勋章

    发表于 2020-8-1 17:36:56 | 显示全部楼层
    感谢分享 但麻烦还是补一下剧集的截图和海报

    点评

    图片传不了,权限不够  详情 回复 发表于 2020-8-1 19:01
    声明:本人制作或发布的所有资源仅限论坛会员测试带宽使用!请在测试后24小时内删除!
    严禁非法传播或用于商业用途,对用于商业用途所产生的法律责任,由使用者自负!
    回复

    使用道具 举报

  • TA的每日心情
    开心
    前天 10:12
  • 签到天数: 19 天

    [LV.4]偶尔看看III

    3

    主题

    128

    帖子

    15

    积分

    入门影迷

    Rank: 1

    积分
    15
     楼主| 发表于 2020-8-1 19:01:47 | 显示全部楼层
    zflzemail 发表于 2020-8-1 17:36
    感谢分享 但麻烦还是补一下剧集的截图和海报

    图片传不了,权限不够

    点评

    用外部图床 你把截图打包度盘发给我,我给你编辑下  详情 回复 发表于 2020-8-1 20:43
    回复

    使用道具 举报

  • TA的每日心情
    开心
    3 天前
  • 签到天数: 32 天

    [LV.5]常住居民I

    0

    主题

    127

    帖子

    198

    积分

    高级影迷

    Rank: 4

    积分
    198
    发表于 2020-8-1 19:39:59 | 显示全部楼层
    多谢分享!
    回复

    使用道具 举报

  • TA的每日心情
    慵懒
    11 小时前
  • 签到天数: 146 天

    [LV.7]常住居民III

    201

    主题

    672

    帖子

    1717

    积分

    超级版主

    Rank: 16Rank: 16Rank: 16Rank: 16

    积分
    1717

    超版勋章版主勋章土豪勋章小土豪勋章最佳新人十二生肖之猴双鱼座勋章百分百好孩子精华勋章

    发表于 2020-8-1 20:43:09 | 显示全部楼层
    meiyou76 发表于 2020-8-1 19:01
    图片传不了,权限不够

    用外部图床 你把截图打包度盘发给我,我给你编辑下
    声明:本人制作或发布的所有资源仅限论坛会员测试带宽使用!请在测试后24小时内删除!
    严禁非法传播或用于商业用途,对用于商业用途所产生的法律责任,由使用者自负!
    回复

    使用道具 举报

    该用户从未签到

    0

    主题

    3

    帖子

    24

    积分

    入门影迷

    Rank: 1

    积分
    24
    发表于 4 天前 | 显示全部楼层
    感谢感谢,还是老版本经典
    回复

    使用道具 举报

  • TA的每日心情
    奋斗
    前天 10:41
  • 签到天数: 1 天

    [LV.1]初来乍到

    0

    主题

    6

    帖子

    20

    积分

    入门影迷

    Rank: 1

    积分
    20
    发表于 前天 10:49 | 显示全部楼层
    感谢楼主分享
    回复

    使用道具 举报

    您需要登录后才可以回帖 登录 | 立即注册

    本版积分规则

    QQ|Archiver|手机版|小黑屋|影迷乐园  

    GMT+8, 2020-8-9 11:18 , Processed in 0.196592 second(s), 37 queries .

    Powered by Discuz! X3.3

    © 2001-2017 Comsenz Inc.

    快速回复 返回顶部 返回列表