请选择 进入手机版 | 继续访问电脑版

YMLY-影迷乐园-特效字幕 蓝光原盘 1080P 高清动漫电影电视剧

 找回密码
 立即注册
搜索
查看: 47|回复: 12

[修复版] [百度][1979][4K][愚人买鞋.上美高清修复版][国语无字][190MB][MP4][The.Fool.Buy.Shoes.1979.WEB-DL.4K.H265.AAC-PTerWEB]

[复制链接]
  • TA的每日心情
    慵懒
    10 小时前
  • 签到天数: 146 天

    [LV.7]常住居民III

    201

    主题

    672

    帖子

    1717

    积分

    超级版主

    Rank: 16Rank: 16Rank: 16Rank: 16

    积分
    1717

    超版勋章版主勋章土豪勋章小土豪勋章最佳新人十二生肖之猴双鱼座勋章百分百好孩子精华勋章

    发表于 2020-8-1 18:07:47 | 显示全部楼层 |阅读模式
    下载说明:

    百度网盘分享极其不稳定,如有链接失效,请第一时间站内短消息通知我,上线后会第一时间补发!



    ◎译  名 
    ◎片  名 愚人买鞋
    ◎年  代 1979
    ◎产  地 中国大陆
    ◎类  别 动画 / 短片 / 儿童
    ◎语  言 汉语普通话
    ◎上映日期 1979(中国大陆)
    ◎IMDb评分  7.0/10 from 6 users
    ◎IMDb链接  https://www.imdb.com/title/tt6822746
    ◎豆瓣评分 7.8/10 from 6366 users
    ◎豆瓣链接 https://movie.douban.com/subject/1849336/
    ◎片  长 9分钟
    ◎导  演 方润南 Runnan Fang / 尤磊 Lei You
    ◎编  剧 方昉

    ◎标  签 国产动画 | 动画 | 中国 | 童年 | 童年回忆 | 大陆 | 经典 | 动画片

    ◎简  介  

      古代有个成天埋在书堆里的书呆子,认为凡事都能从书中找到答案,由于死读书不求甚解,他的“全信书”往往是断章取义式。
      某天,他把脚放在炉火上读有关古人钻木取火的文章,这边鞋子被火烧着了,那边他还在念叨“先有烟再有火”。等发现鞋子着火时,他急得抓耳挠腮,又去求诸书本,见书中写“橘性温良能降火”,忙大吃起橘子,橘汁滴落鞋上把火灭了,他大喜自叹书的伟大,可是鞋子已经不能穿了。他上街买鞋,卖鞋人问他尺寸,他一挠头:回家去取!翻箱倒柜找出父亲留下的书简,只见一句“着鞋六寸”,无视前面的“吾儿七岁”和后面的“脚随人长,步步前进”。

    1. General
    2. Complete name                  : The.Fool.Buy.Shoes.1979.WEB-DL.4K.H265.AAC-PTerWEB.mp4
    3. Format                         : MPEG-4
    4. Format profile                 : Base Media
    5. Codec ID                       : isom (isom/iso2/mp41)
    6. File size                      : 190 MiB
    7. Duration                       : 9 min 34 s
    8. Overall bit rate mode          : Variable
    9. Overall bit rate               : 2 777 kb/s
    10. Writing application            : Lavf58.35.100

    11. Video
    12. ID                             : 1
    13. Format                         : HEVC
    14. Format/Info                    : High Efficiency Video Coding
    15. Format profile                 : Main@L5@Main
    16. Codec ID                       : hev1
    17. Codec ID/Info                  : High Efficiency Video Coding
    18. Duration                       : 9 min 34 s
    19. Bit rate                       : 2 642 kb/s
    20. Width                          : 3 840 pixels
    21. Height                         : 2 160 pixels
    22. Display aspect ratio           : 16:9
    23. Frame rate mode                : Variable
    24. Frame rate                     : 24.000 FPS
    25. Minimum frame rate             : 23.994 FPS
    26. Maximum frame rate             : 24.006 FPS
    27. Color space                    : YUV
    28. Chroma subsampling             : 4:2:0
    29. Bit depth                      : 8 bits
    30. Bits/(Pixel*Frame)             : 0.013
    31. Stream size                    : 181 MiB (95%)
    32. Codec configuration box        : hvcC

    33. Audio
    34. ID                             : 2
    35. Format                         : AAC LC
    36. Format/Info                    : Advanced Audio Codec Low Complexity
    37. Codec ID                       : mp4a-40-2
    38. Duration                       : 9 min 34 s
    39. Bit rate mode                  : Variable
    40. Bit rate                       : 128 kb/s
    41. Maximum bit rate               : 134 kb/s
    42. Channel(s)                     : 2 channels
    43. Channel layout                 : L R
    44. Sampling rate                  : 48.0 kHz
    45. Frame rate                     : 46.875 FPS (1024 SPF)
    46. Compression mode               : Lossy
    47. Stream size                    : 8.76 MiB (5%)
    48. Default                        : Yes
    49. Alternate group                : 1
    复制代码






    购买主题 已有 12 人购买  本主题需向作者支付 10 大洋 才能浏览
    声明:本人制作或发布的所有资源仅限论坛会员测试带宽使用!请在测试后24小时内删除!
    严禁非法传播或用于商业用途,对用于商业用途所产生的法律责任,由使用者自负!
    回复

    使用道具 举报

  • TA的每日心情
    郁闷
    4 天前
  • 签到天数: 83 天

    [LV.6]常住居民II

    4

    主题

    247

    帖子

    20

    积分

    入门影迷

    Rank: 1

    积分
    20
    发表于 2020-8-1 19:45:06 | 显示全部楼层
    感谢大神的辛苦分享!继续支持!
    回复

    使用道具 举报

    该用户从未签到

    0

    主题

    36

    帖子

    7

    积分

    入门影迷

    Rank: 1

    积分
    7
    发表于 2020-8-1 20:31:36 | 显示全部楼层
    感谢大神的辛苦分享!继续支持!
    回复

    使用道具 举报

  • TA的每日心情
    开心
    10 小时前
  • 签到天数: 148 天

    [LV.7]常住居民III

    1

    主题

    341

    帖子

    38

    积分

    初级影迷

    Rank: 2

    积分
    38
    发表于 2020-8-1 20:41:15 | 显示全部楼层
    感谢大神的辛苦分享!继续支持!牛牛牛
    回复

    使用道具 举报

  • TA的每日心情
    奋斗
    1 小时前
  • 签到天数: 464 天

    [LV.9]以坛为家II

    37

    主题

    5278

    帖子

    642

    积分

    专业影迷

    Rank: 8Rank: 8

    积分
    642
    发表于 7 天前 | 显示全部楼层
    感谢分享,辛苦了朋友!
    回复

    使用道具 举报

  • TA的每日心情
    奋斗
    10 小时前
  • 签到天数: 52 天

    [LV.5]常住居民I

    0

    主题

    539

    帖子

    64

    积分

    初级影迷

    Rank: 2

    积分
    64
    发表于 7 天前 | 显示全部楼层
    非常经典了
    回复

    使用道具 举报

  • TA的每日心情
    擦汗
    1 小时前
  • 签到天数: 96 天

    [LV.6]常住居民II

    1

    主题

    177

    帖子

    32

    积分

    初级影迷

    Rank: 2

    积分
    32
    发表于 7 天前 | 显示全部楼层
    感谢分享!
    回复

    使用道具 举报

  • TA的每日心情

    2020-7-26 08:14
  • 签到天数: 50 天

    [LV.5]常住居民I

    26

    主题

    152

    帖子

    209

    积分

    高级影迷

    Rank: 4

    积分
    209
    发表于 7 天前 | 显示全部楼层
    经典寓言故事,感谢。
    回复

    使用道具 举报

  • TA的每日心情
    开心
    昨天 10:08
  • 签到天数: 51 天

    [LV.5]常住居民I

    6

    主题

    149

    帖子

    110

    积分

    中级影迷

    Rank: 3Rank: 3

    积分
    110
    发表于 7 天前 | 显示全部楼层
    我看不错噢 谢谢楼主!
    回复

    使用道具 举报

  • TA的每日心情
    开心
    前天 07:49
  • 签到天数: 62 天

    [LV.6]常住居民II

    0

    主题

    141

    帖子

    23

    积分

    入门影迷

    Rank: 1

    积分
    23
    发表于 6 天前 | 显示全部楼层
    经典中的经典,感谢分享!
    回复

    使用道具 举报

    您需要登录后才可以回帖 登录 | 立即注册

    本版积分规则

    QQ|Archiver|手机版|小黑屋|影迷乐园  

    GMT+8, 2020-8-9 10:59 , Processed in 0.179634 second(s), 35 queries .

    Powered by Discuz! X3.3

    © 2001-2017 Comsenz Inc.

    快速回复 返回顶部 返回列表