请选择 进入手机版 | 继续访问电脑版

YMLY-影迷乐园-特效字幕 蓝光原盘 1080P 高清动漫电影电视剧

 找回密码
 立即注册
搜索
查看: 55|回复: 13

[修复版] [百度][1980][4K][老狼请客.上美高清修复版][国语无字][195MB][MP4][Old.Wolf.Treat.1980.WEB-DL.4K.H265.AAC-PTerWEB]

[复制链接]
  • TA的每日心情
    慵懒
    11 小时前
  • 签到天数: 146 天

    [LV.7]常住居民III

    201

    主题

    672

    帖子

    1717

    积分

    超级版主

    Rank: 16Rank: 16Rank: 16Rank: 16

    积分
    1717

    超版勋章版主勋章土豪勋章小土豪勋章最佳新人十二生肖之猴双鱼座勋章百分百好孩子精华勋章

    发表于 2020-8-1 18:12:10 | 显示全部楼层 |阅读模式
    下载说明:

    百度网盘分享极其不稳定,如有链接失效,请第一时间站内短消息通知我,上线后会第一时间补发!




    ◎译  名 
    ◎片  名 老狼请客
    ◎年  代 1980
    ◎产  地 中国大陆
    ◎类  别 动画 / 短片
    ◎语  言 汉语普通话
    ◎上映日期 1980(中国大陆)
    ◎IMDb评分  7.0/10 from 15 users
    ◎IMDb链接  https://www.imdb.com/title/tt6794722
    ◎豆瓣评分 8.2/10 from 17182 users
    ◎豆瓣链接 https://movie.douban.com/subject/1431945/
    ◎片  长 10分钟
    ◎导  演 阎善春 Shanchun Yan
    ◎编  剧 方轶群

    ◎标  签 国产动画 | 动画 | 童年 | 中国 | 经典 | 动画片 | 大陆 | 老狼请客

    ◎简  介  

      老狼炖了一大锅鲜美的鸡汤,请了他的好朋友狐狸和狗熊来作客。狡猾的狐狸先到了,馋嘴的他趁着老狼出外的时候偷偷的把一整锅鸡汤吃完了。眼看着老狼慢悠悠的走回来了,狐狸眼猪一转,计上心来。他摸了点鸡血到自己脸上,见了老狼就嚎啕大哭,说狗熊偷鸡吃时被他撞见,想杀人灭口。听了狐狸的哭诉,老狼怒不可遏,提起刀子就找狗熊报仇去了。狐狸这时又抢先找到狗熊,楚楚可怜的说,老狼请客其实是个陷阱,他想把他们两都宰了吃。吓坏了的狗熊这时看到老狼提把刀子怒气冲冲赶来了,吓得转身就跑……

    1. General
    2. Complete name                  : Old.Wolf.Treat.1980.WEB-DL.4K.H265.AAC-PTerWEB.mp4
    3. Format                         : MPEG-4
    4. Format profile                 : Base Media
    5. Codec ID                       : isom (isom/iso2/mp41)
    6. File size                      : 195 MiB
    7. Duration                       : 10 min 11 s
    8. Overall bit rate               : 2 680 kb/s
    9. Writing application            : Lavf58.35.100

    10. Video
    11. ID                             : 1
    12. Format                         : HEVC
    13. Format/Info                    : High Efficiency Video Coding
    14. Format profile                 : Main@L5@Main
    15. Codec ID                       : hev1
    16. Codec ID/Info                  : High Efficiency Video Coding
    17. Duration                       : 10 min 11 s
    18. Bit rate                       : 2 545 kb/s
    19. Width                          : 3 840 pixels
    20. Height                         : 2 160 pixels
    21. Display aspect ratio           : 16:9
    22. Frame rate mode                : Variable
    23. Frame rate                     : 24.000 FPS
    24. Minimum frame rate             : 23.994 FPS
    25. Maximum frame rate             : 24.006 FPS
    26. Color space                    : YUV
    27. Chroma subsampling             : 4:2:0
    28. Bit depth                      : 8 bits
    29. Bits/(Pixel*Frame)             : 0.013
    30. Stream size                    : 185 MiB (95%)
    31. Codec configuration box        : hvcC

    32. Audio
    33. ID                             : 2
    34. Format                         : AAC LC
    35. Format/Info                    : Advanced Audio Codec Low Complexity
    36. Codec ID                       : mp4a-40-2
    37. Duration                       : 10 min 11 s
    38. Bit rate mode                  : Constant
    39. Bit rate                       : 128 kb/s
    40. Channel(s)                     : 2 channels
    41. Channel layout                 : L R
    42. Sampling rate                  : 48.0 kHz
    43. Frame rate                     : 46.875 FPS (1024 SPF)
    44. Compression mode               : Lossy
    45. Stream size                    : 9.32 MiB (5%)
    46. Default                        : Yes
    47. Alternate group                : 1
    复制代码






    购买主题 已有 13 人购买  本主题需向作者支付 10 大洋 才能浏览
    声明:本人制作或发布的所有资源仅限论坛会员测试带宽使用!请在测试后24小时内删除!
    严禁非法传播或用于商业用途,对用于商业用途所产生的法律责任,由使用者自负!
    回复

    使用道具 举报

  • TA的每日心情
    郁闷
    4 天前
  • 签到天数: 83 天

    [LV.6]常住居民II

    4

    主题

    247

    帖子

    20

    积分

    入门影迷

    Rank: 1

    积分
    20
    发表于 2020-8-1 19:48:06 | 显示全部楼层
    感谢大神分享!继续支持!
    回复

    使用道具 举报

  • TA的每日心情
    开心
    11 小时前
  • 签到天数: 148 天

    [LV.7]常住居民III

    1

    主题

    341

    帖子

    38

    积分

    初级影迷

    Rank: 2

    积分
    38
    发表于 2020-8-1 20:44:17 | 显示全部楼层
    感谢大神的辛苦分享!继续支持!牛牛牛
    回复

    使用道具 举报

    该用户从未签到

    0

    主题

    36

    帖子

    7

    积分

    入门影迷

    Rank: 1

    积分
    7
    发表于 2020-8-1 21:23:06 | 显示全部楼层
    感谢大神的辛苦分享!继续支持!牛牛牛
    回复

    使用道具 举报

  • TA的每日心情
    开心
    10 小时前
  • 签到天数: 121 天

    [LV.7]常住居民III

    0

    主题

    361

    帖子

    24

    积分

    入门影迷

    Rank: 1

    积分
    24
    发表于 2020-8-1 23:54:41 | 显示全部楼层
    这个画风很独特
    回复

    使用道具 举报

  • TA的每日心情
    奋斗
    1 小时前
  • 签到天数: 464 天

    [LV.9]以坛为家II

    37

    主题

    5278

    帖子

    642

    积分

    专业影迷

    Rank: 8Rank: 8

    积分
    642
    发表于 7 天前 | 显示全部楼层
    很好的资源。感谢发布!
    回复

    使用道具 举报

  • TA的每日心情
    奋斗
    11 小时前
  • 签到天数: 52 天

    [LV.5]常住居民I

    0

    主题

    539

    帖子

    64

    积分

    初级影迷

    Rank: 2

    积分
    64
    发表于 7 天前 | 显示全部楼层
    谢谢分享了
    回复

    使用道具 举报

    该用户从未签到

    0

    主题

    39

    帖子

    13

    积分

    入门影迷

    Rank: 1

    积分
    13
    发表于 7 天前 | 显示全部楼层
    感谢楼主分享,真心爱楼主
    回复

    使用道具 举报

  • TA的每日心情

    2020-7-26 08:14
  • 签到天数: 50 天

    [LV.5]常住居民I

    26

    主题

    152

    帖子

    209

    积分

    高级影迷

    Rank: 4

    积分
    209
    发表于 7 天前 | 显示全部楼层
    这部期待好久,感谢。
    回复

    使用道具 举报

  • TA的每日心情
    开心
    昨天 10:08
  • 签到天数: 51 天

    [LV.5]常住居民I

    6

    主题

    149

    帖子

    110

    积分

    中级影迷

    Rank: 3Rank: 3

    积分
    110
    发表于 7 天前 | 显示全部楼层
    既然你诚信诚意的推荐了,那我就勉为其难的看看吧!爱电影,爱生活
    回复

    使用道具 举报

    您需要登录后才可以回帖 登录 | 立即注册

    本版积分规则

    QQ|Archiver|手机版|小黑屋|影迷乐园  

    GMT+8, 2020-8-9 11:19 , Processed in 0.192749 second(s), 35 queries .

    Powered by Discuz! X3.3

    © 2001-2017 Comsenz Inc.

    快速回复 返回顶部 返回列表