请选择 进入手机版 | 继续访问电脑版

YMLY-影迷乐园-特效字幕 蓝光原盘 1080P 高清动漫电影电视剧

 找回密码
 立即注册
搜索
查看: 55|回复: 14

[修复版] [百度][1988][4K][山水情.上美高清修复版][国语无字][212MB][MP4][Feelings.of.Mountains.and.Waters.1988.WEB-DL.4K.H265.AAC-PTerWEB]

[复制链接]
  • TA的每日心情
    慵懒
    9 小时前
  • 签到天数: 146 天

    [LV.7]常住居民III

    201

    主题

    672

    帖子

    1717

    积分

    超级版主

    Rank: 16Rank: 16Rank: 16Rank: 16

    积分
    1717

    超版勋章版主勋章土豪勋章小土豪勋章最佳新人十二生肖之猴双鱼座勋章百分百好孩子精华勋章

    发表于 2020-8-1 18:16:46 | 显示全部楼层 |阅读模式
    下载说明:

    百度网盘分享极其不稳定,如有链接失效,请第一时间站内短消息通知我,上线后会第一时间补发!



    ◎译  名 Feelings of Mountains and Waters
    ◎片  名 山水情
    ◎年  代 1988
    ◎产  地 中国大陆
    ◎类  别 动画 / 短片
    ◎语  言 无对白
    ◎上映日期 1988
    ◎IMDb评分  7.5/10 from 451 users
    ◎IMDb链接  https://www.imdb.com/title/tt0355439
    ◎豆瓣评分 9.3/10 from 20081 users
    ◎豆瓣链接 https://movie.douban.com/subject/1316626/
    ◎片  长 19分钟
    ◎导  演 特伟 Wei Te / 阎善春 Shanchun Yan / 马克宣 Kexuan Ma
    ◎编  剧 王树忱 Shuchen Wang

    ◎标  签 动画 | 水墨 | 中国 | 水墨动画 | 短片 | 动画短片 | 国产动画 | 中国动画

    ◎简  介  

      本片是由上海美术电影制片厂1988年出品的水墨动画电影。讲述了老琴师在归途中病倒在荒村野渡口,渔家少年留老人在自己的茅舍里歇息,老人感到宽慰。翌日,老人病体康复,取出古琴,弹奏一曲,琴声把少年引到他的身边。少年学艺心切,老人诲人不倦,两人结为师徒。秋去春来,少年技艺大 进,老人十分欣喜。但慰藉之余,思虑如何使弟子更上一层楼。一日,老人偶尔看到雏鹰离开母鹰独自展翅翱翔的情景,豁然开朗。于是携少年驾舟而去,经大川而登高山,壮美的大自然,使少年为之神往。临别时,老琴师将心爱的古琴赠送给他,然后独自走向山巅白云之间。少年遥望消失在茫茫山野中的恩师身影,顿时灵感涌起,盘坐在悬崖峭壁之上,手抚琴弦,弹奏着心中之曲,倾吐着对人生的赞美,悠扬的琴声在山间回响。
      本片人物、场景设定邀请了著名国画大师吴山明和卓鹤君先生,这也为本片的美术打下了坚实的基础。此外,《山水情》被公认为水墨动画至今无人超越的典范,其诗一样的气质、幽远清淡的画面已达到天人合一的境界。

    ◎获奖情况  

      第9届中国电影金鸡奖(1989)
      最佳美术片
    1. General
    2. Complete name                  : Feelings.of.Mountains.and.Waters.1988.WEB-DL.4K.H265.AAC-PTerWEB.mp4
    3. Format                         : MPEG-4
    4. Format profile                 : Base Media
    5. Codec ID                       : isom (isom/iso2/mp41)
    6. File size                      : 212 MiB
    7. Duration                       : 19 min 11 s
    8. Overall bit rate               : 1 545 kb/s
    9. Writing application            : Lavf58.35.100

    10. Video
    11. ID                             : 1
    12. Format                         : HEVC
    13. Format/Info                    : High Efficiency Video Coding
    14. Format profile                 : Main@L5@Main
    15. Codec ID                       : hev1
    16. Codec ID/Info                  : High Efficiency Video Coding
    17. Duration                       : 19 min 11 s
    18. Bit rate                       : 1 410 kb/s
    19. Width                          : 3 840 pixels
    20. Height                         : 2 160 pixels
    21. Display aspect ratio           : 16:9
    22. Frame rate mode                : Variable
    23. Frame rate                     : 24.000 FPS
    24. Minimum frame rate             : 23.994 FPS
    25. Maximum frame rate             : 24.006 FPS
    26. Color space                    : YUV
    27. Chroma subsampling             : 4:2:0
    28. Bit depth                      : 8 bits
    29. Bits/(Pixel*Frame)             : 0.007
    30. Stream size                    : 194 MiB (91%)
    31. Codec configuration box        : hvcC

    32. Audio
    33. ID                             : 2
    34. Format                         : AAC LC
    35. Format/Info                    : Advanced Audio Codec Low Complexity
    36. Codec ID                       : mp4a-40-2
    37. Duration                       : 19 min 11 s
    38. Bit rate mode                  : Constant
    39. Bit rate                       : 128 kb/s
    40. Channel(s)                     : 2 channels
    41. Channel layout                 : L R
    42. Sampling rate                  : 48.0 kHz
    43. Frame rate                     : 46.875 FPS (1024 SPF)
    44. Compression mode               : Lossy
    45. Stream size                    : 17.6 MiB (8%)
    46. Default                        : Yes
    47. Alternate group                : 1
    复制代码






    购买主题 已有 14 人购买  本主题需向作者支付 10 大洋 才能浏览
    声明:本人制作或发布的所有资源仅限论坛会员测试带宽使用!请在测试后24小时内删除!
    严禁非法传播或用于商业用途,对用于商业用途所产生的法律责任,由使用者自负!
    回复

    使用道具 举报

  • TA的每日心情
    郁闷
    4 天前
  • 签到天数: 83 天

    [LV.6]常住居民II

    4

    主题

    247

    帖子

    20

    积分

    入门影迷

    Rank: 1

    积分
    20
    发表于 2020-8-1 19:40:36 | 显示全部楼层
    我的最爱。感谢大神的持续分享,继续支持!辛苦了!
    回复

    使用道具 举报

    该用户从未签到

    0

    主题

    36

    帖子

    7

    积分

    入门影迷

    Rank: 1

    积分
    7
    发表于 2020-8-1 20:34:45 | 显示全部楼层
    我的最爱。感谢大神的持续分享,继续支持!辛苦了!
    回复

    使用道具 举报

  • TA的每日心情
    开心
    9 小时前
  • 签到天数: 148 天

    [LV.7]常住居民III

    1

    主题

    341

    帖子

    38

    积分

    初级影迷

    Rank: 2

    积分
    38
    发表于 2020-8-1 20:45:25 | 显示全部楼层
    感谢大神的辛苦分享!继续支持!牛牛牛
    回复

    使用道具 举报

  • TA的每日心情
    开心
    9 小时前
  • 签到天数: 121 天

    [LV.7]常住居民III

    0

    主题

    361

    帖子

    24

    积分

    入门影迷

    Rank: 1

    积分
    24
    发表于 2020-8-1 23:43:35 | 显示全部楼层
    这个太好了,多谢楼主!
    回复

    使用道具 举报

  • TA的每日心情
    奋斗
    13 分钟前
  • 签到天数: 464 天

    [LV.9]以坛为家II

    37

    主题

    5275

    帖子

    641

    积分

    专业影迷

    Rank: 8Rank: 8

    积分
    641
    发表于 7 天前 | 显示全部楼层
    很不错!谢谢分享。
    回复

    使用道具 举报

  • TA的每日心情
    奋斗
    9 小时前
  • 签到天数: 52 天

    [LV.5]常住居民I

    0

    主题

    539

    帖子

    64

    积分

    初级影迷

    Rank: 2

    积分
    64
    发表于 7 天前 | 显示全部楼层
    真心不错的
    回复

    使用道具 举报

  • TA的每日心情
    慵懒
    昨天 02:47
  • 签到天数: 93 天

    [LV.6]常住居民II

    1

    主题

    217

    帖子

    24

    积分

    入门影迷

    Rank: 1

    积分
    24
    发表于 7 天前 | 显示全部楼层
    感谢分享!
    回复

    使用道具 举报

    该用户从未签到

    0

    主题

    39

    帖子

    13

    积分

    入门影迷

    Rank: 1

    积分
    13
    发表于 7 天前 | 显示全部楼层
    感谢楼主分享,很好很强大
    回复

    使用道具 举报

  • TA的每日心情

    2020-7-26 08:14
  • 签到天数: 50 天

    [LV.5]常住居民I

    26

    主题

    152

    帖子

    209

    积分

    高级影迷

    Rank: 4

    积分
    209
    发表于 7 天前 | 显示全部楼层
    感谢,这部也收了。
    回复

    使用道具 举报

    您需要登录后才可以回帖 登录 | 立即注册

    本版积分规则

    QQ|Archiver|手机版|小黑屋|影迷乐园  

    GMT+8, 2020-8-9 09:56 , Processed in 0.170126 second(s), 35 queries .

    Powered by Discuz! X3.3

    © 2001-2017 Comsenz Inc.

    快速回复 返回顶部 返回列表