请选择 进入手机版 | 继续访问电脑版

YMLY-影迷乐园-特效字幕 蓝光原盘 1080P 高清动漫电影电视剧

 找回密码
 立即注册
搜索
查看: 54|回复: 12

[修复版] [百度][1982][4K][小熊猫学木匠.上美高清修复版][国语无字][221MB][MP4][Little.Panda.Learns.Carpenter.1982.WEB-DL.4K.H265.AAC-PTerWEB]

[复制链接]
  • TA的每日心情
    慵懒
    9 小时前
  • 签到天数: 146 天

    [LV.7]常住居民III

    201

    主题

    672

    帖子

    1717

    积分

    超级版主

    Rank: 16Rank: 16Rank: 16Rank: 16

    积分
    1717

    超版勋章版主勋章土豪勋章小土豪勋章最佳新人十二生肖之猴双鱼座勋章百分百好孩子精华勋章

    发表于 2020-8-1 18:20:36 | 显示全部楼层 |阅读模式
    下载说明:

    百度网盘分享极其不稳定,如有链接失效,请第一时间站内短消息通知我,上线后会第一时间补发!




    ◎译  名 
    ◎片  名 小熊猫学木匠
    ◎年  代 1982
    ◎产  地 中国大陆
    ◎类  别 喜剧 / 动画 / 短片
    ◎语  言 汉语普通话
    ◎IMDb评分  6.4/10 from 5 users
    ◎IMDb链接  https://www.imdb.com/title/tt6852530
    ◎豆瓣评分 7.9/10 from 4238 users
    ◎豆瓣链接 https://movie.douban.com/subject/1431957/
    ◎片  长 17分钟
    ◎导  演 周克勤 Keqin Zhou
    ◎编  剧 丁午

    ◎标  签 国产动画 | 动画 | 童年 | 中国 | 童年回忆 | 动画片 | 经典 | 大陆

    ◎简  介  

      本美术片为纸偶动画片。
      小熊猫跟爷爷学做木匠活,刚学了个皮毛,就按捺不住想出去当木匠,爷爷劝阻,哪知一个不留神,它已开着摩托车潇洒地出发了,结果闹了不少笑话:长颈鹿妈妈和孩子们吃饭时,发现餐桌坏了,正商量着去找熊猫爷爷来修,小熊猫哼着歌赶来接下活,结果修是修平了,高桌也变成矮桌了;大象伯伯的洗澡桶有个漏洞,小熊猫修来修去,修成一地木块。更好玩的,是它帮小猴们修装有桃子的箱子时,把自己装进了里面。小熊猫离成为一个合格的木匠,还差得远呢。

    1. General
    2. Complete name                  : Little.Panda.Learns.Carpenter.1982.WEB-DL.4K.H265.AAC-PTerWEB.mp4
    3. Format                         : MPEG-4
    4. Format profile                 : Base Media
    5. Codec ID                       : isom (isom/iso2/mp41)
    6. File size                      : 221 MiB
    7. Duration                       : 16 min 55 s
    8. Overall bit rate mode          : Variable
    9. Overall bit rate               : 1 827 kb/s
    10. Writing application            : Lavf58.35.100

    11. Video
    12. ID                             : 1
    13. Format                         : HEVC
    14. Format/Info                    : High Efficiency Video Coding
    15. Format profile                 : Main@L5@Main
    16. Codec ID                       : hev1
    17. Codec ID/Info                  : High Efficiency Video Coding
    18. Duration                       : 16 min 55 s
    19. Bit rate                       : 1 692 kb/s
    20. Width                          : 3 840 pixels
    21. Height                         : 2 160 pixels
    22. Display aspect ratio           : 16:9
    23. Frame rate mode                : Variable
    24. Frame rate                     : 24.000 FPS
    25. Minimum frame rate             : 23.994 FPS
    26. Maximum frame rate             : 24.006 FPS
    27. Color space                    : YUV
    28. Chroma subsampling             : 4:2:0
    29. Bit depth                      : 8 bits
    30. Bits/(Pixel*Frame)             : 0.008
    31. Stream size                    : 205 MiB (93%)
    32. Codec configuration box        : hvcC

    33. Audio
    34. ID                             : 2
    35. Format                         : AAC LC
    36. Format/Info                    : Advanced Audio Codec Low Complexity
    37. Codec ID                       : mp4a-40-2
    38. Duration                       : 16 min 55 s
    39. Bit rate mode                  : Variable
    40. Bit rate                       : 128 kb/s
    41. Maximum bit rate               : 138 kb/s
    42. Channel(s)                     : 2 channels
    43. Channel layout                 : L R
    44. Sampling rate                  : 48.0 kHz
    45. Frame rate                     : 46.875 FPS (1024 SPF)
    46. Compression mode               : Lossy
    47. Stream size                    : 15.5 MiB (7%)
    48. Default                        : Yes
    49. Alternate group                : 1
    复制代码






    购买主题 已有 12 人购买  本主题需向作者支付 10 大洋 才能浏览
    声明:本人制作或发布的所有资源仅限论坛会员测试带宽使用!请在测试后24小时内删除!
    严禁非法传播或用于商业用途,对用于商业用途所产生的法律责任,由使用者自负!
    回复

    使用道具 举报

  • TA的每日心情
    郁闷
    4 天前
  • 签到天数: 83 天

    [LV.6]常住居民II

    4

    主题

    247

    帖子

    20

    积分

    入门影迷

    Rank: 1

    积分
    20
    发表于 2020-8-1 19:51:43 | 显示全部楼层
    感谢大神的辛苦分享,继续期待!
    回复

    使用道具 举报

    该用户从未签到

    0

    主题

    36

    帖子

    7

    积分

    入门影迷

    Rank: 1

    积分
    7
    发表于 2020-8-1 20:35:44 | 显示全部楼层
    感谢大神的辛苦分享,继续期待!
    回复

    使用道具 举报

  • TA的每日心情
    开心
    10 小时前
  • 签到天数: 148 天

    [LV.7]常住居民III

    1

    主题

    341

    帖子

    38

    积分

    初级影迷

    Rank: 2

    积分
    38
    发表于 2020-8-1 20:41:36 | 显示全部楼层
    感谢大神的辛苦分享!继续支持!牛牛牛
    回复

    使用道具 举报

  • TA的每日心情
    开心
    9 小时前
  • 签到天数: 121 天

    [LV.7]常住居民III

    0

    主题

    361

    帖子

    24

    积分

    入门影迷

    Rank: 1

    积分
    24
    发表于 2020-8-1 23:49:37 | 显示全部楼层
    注意别把自己钉进箱子里
    回复

    使用道具 举报

  • TA的每日心情
    奋斗
    25 分钟前
  • 签到天数: 464 天

    [LV.9]以坛为家II

    37

    主题

    5278

    帖子

    642

    积分

    专业影迷

    Rank: 8Rank: 8

    积分
    642
    发表于 7 天前 | 显示全部楼层
    感谢分享好资源!
    回复

    使用道具 举报

  • TA的每日心情
    奋斗
    10 小时前
  • 签到天数: 52 天

    [LV.5]常住居民I

    0

    主题

    539

    帖子

    64

    积分

    初级影迷

    Rank: 2

    积分
    64
    发表于 7 天前 | 显示全部楼层
    很不错的啊
    回复

    使用道具 举报

  • TA的每日心情
    擦汗
    28 分钟前
  • 签到天数: 96 天

    [LV.6]常住居民II

    1

    主题

    177

    帖子

    32

    积分

    初级影迷

    Rank: 2

    积分
    32
    发表于 7 天前 | 显示全部楼层
    感谢分享!
    回复

    使用道具 举报

  • TA的每日心情

    2020-7-26 08:14
  • 签到天数: 50 天

    [LV.5]常住居民I

    26

    主题

    152

    帖子

    209

    积分

    高级影迷

    Rank: 4

    积分
    209
    发表于 7 天前 | 显示全部楼层
    好多经典啊,继续支持。
    回复

    使用道具 举报

  • TA的每日心情
    开心
    昨天 10:08
  • 签到天数: 51 天

    [LV.5]常住居民I

    6

    主题

    149

    帖子

    110

    积分

    中级影迷

    Rank: 3Rank: 3

    积分
    110
    发表于 7 天前 | 显示全部楼层
    支持国产的精品
    回复

    使用道具 举报

    您需要登录后才可以回帖 登录 | 立即注册

    本版积分规则

    QQ|Archiver|手机版|小黑屋|影迷乐园  

    GMT+8, 2020-8-9 10:08 , Processed in 0.181725 second(s), 35 queries .

    Powered by Discuz! X3.3

    © 2001-2017 Comsenz Inc.

    快速回复 返回顶部 返回列表