请选择 进入手机版 | 继续访问电脑版

YMLY-影迷乐园-特效字幕 蓝光原盘 1080P 高清动漫电影电视剧

 找回密码
 立即注册
搜索
查看: 64|回复: 8

[日本] [百度][2005][最终幻想7:圣子降临][日英双语.简繁英字幕][3.63GB][MKV][Final.Fantasy.VII.2005.BD.1080P.x265.10bit.DD5.1-FFansBD]

[复制链接]
  • TA的每日心情
    慵懒
    10 小时前
  • 签到天数: 146 天

    [LV.7]常住居民III

    201

    主题

    672

    帖子

    1717

    积分

    超级版主

    Rank: 16Rank: 16Rank: 16Rank: 16

    积分
    1717

    超版勋章版主勋章土豪勋章小土豪勋章最佳新人十二生肖之猴双鱼座勋章百分百好孩子精华勋章

    发表于 2020-8-1 18:38:01 | 显示全部楼层 |阅读模式
    下载说明:

    百度网盘分享极其不稳定,如有链接失效,请第一时间站内短消息通知我,上线后会第一时间补发!


    ----转载自FFANS,感谢压制和原发布人员,特此鸣谢!----




    ◎译  名 最终幻想7:圣子降临 / FFVII ACC / Final Fantasy VII: Advent Children / 最终幻想7:圣童降临 / 最终幻想7:归来之子 / 最终幻想7:降临之子
    ◎片  名 ファイナルファンタジーVII アドベントチルドレン
    ◎年  代 2005
    ◎产  地 日本
    ◎类  别 动作 / 科幻 / 动画 / 惊悚
    ◎语  言 日语 / 英语
    ◎上映日期 2005-09-14(日本)
    ◎IMDb评分  7.2/10 from 54450 users
    ◎IMDb链接  https://www.imdb.com/title/tt0385700
    ◎豆瓣评分 8.3/10 from 51253 users
    ◎豆瓣链接 https://movie.douban.com/subject/1422063/
    ◎片  长 101 分钟
    ◎导  演 野村哲也 Tetsuya Nomura / 野末武志
    ◎编  剧 野岛一成
    ◎主  演 樱井孝宏 Takahiro Sakurai
           伊藤步 Ayumi Ito
           森久保祥太郎 Shotaro Morikubo
           森川智之 Toshiyuki Morikawa
           坂本真绫 Maaya Sakamoto
           大川透 Tôru Ôkawa
           藤原启治 Keiji Fujiwara
           楠大典 Taiten Kusunoki
           岸祐二 Yûji Kishi
           乃村健次 Kenji Nomura
           铃木省吾 Shōgo Suzuki
           小林正宽 Masahiro Kobayashi
           山路和弘 Kazuhiro Yamaji
           嘉数由美 Yumi Kakazu
           石川英郎 Hideo Ishikawa
           市村正亲 Masachika Ichimura
           诸星堇 Sumire Morohoshi
           诹访部顺一 Junichi Suwabe
           丰口惠美 Megumi Toyoguchi
           银河万丈 Banjô Ginga
           铃村健一 Kenichi Suzumura
           田村睦心 Mutsumi Tamura
           日笠阳子 Yoko Hikasa
           森田成一 Masakazu Morita


    ◎标  签 ANIME | 最终幻想 | 动画 | 日本 | CG | 科幻 | 日本动画 | 动漫

    ◎简  介  

      赛菲罗斯的事件已经过去2年了,人类从巨大陨石的灾难之下逃脱。曾经繁荣的都市虽然满目疮痍,但人们已经开始投入重建家园的工作之中。而拯救世界的英雄克劳德,却过着与世隔绝的生活。
      但是,神秘的疾病“星痕症候群”在世界蔓延。蒂法•洛克哈特决定找寻克劳德。但当她找到克劳德之时,眼前这个人,只是一个为艾利斯之死郁郁寡欢的落魄男子。
      以继承赛菲罗斯的遗志而组成的白发三人组出现在人们眼前,文森特不得不再次挥动双枪,保护大家。而世界的英雄,克劳德,能否再次振作,守护这个世界呢?


    1. General
    2. Unique ID                      : 230767357795259626520764367581284098642 (0xAD9C2D2C40D6905A9341A399F1A36252)
    3. Complete name                  : Final.Fantasy.VII.2005.BD.1080P.x265.10bit.DD5.1-FFansBD.mkv
    4. Format                         : Matroska
    5. Format version                 : Version 4
    6. File size                      : 3.63 GiB
    7. Duration                       : 2 h 6 min
    8. Overall bit rate               : 4 109 kb/s
    9. Encoded date                   : UTC 2019-04-12 13:17:50
    10. Writing application            : mkvmerge v9.4.0 ('Knurl') 64bit
    11. Writing library                : libebml v1.3.4 + libmatroska v1.4.5
    12. Cover                          : Yes
    13. Attachments                    : cover zz.jpg

    14. Video
    15. ID                             : 1
    16. Format                         : HEVC
    17. Format/Info                    : High Efficiency Video Coding
    18. Format profile                 : Main 10@L4@Main
    19. Codec ID                       : V_MPEGH/ISO/HEVC
    20. Duration                       : 2 h 6 min
    21. Bit rate                       : 2 802 kb/s
    22. Width                          : 1 920 pixels
    23. Height                         : 1 080 pixels
    24. Display aspect ratio           : 16:9
    25. Frame rate mode                : Constant
    26. Frame rate                     : 23.976 (24000/1001) FPS
    27. Color space                    : YUV
    28. Chroma subsampling             : 4:2:0
    29. Bit depth                      : 10 bits
    30. Bits/(Pixel*Frame)             : 0.056
    31. Stream size                    : 2.48 GiB (68%)
    32. Language                       : Japanese
    33. Default                        : Yes
    34. Forced                         : Yes
    35. Color range                    : Limited
    36. Color primaries                : BT.709
    37. Transfer characteristics       : BT.709
    38. Matrix coefficients            : BT.709

    39. Audio #1
    40. ID                             : 2
    41. Format                         : AC-3
    42. Format/Info                    : Audio Coding 3
    43. Commercial name                : Dolby Digital
    44. Codec ID                       : A_AC3
    45. Duration                       : 2 h 6 min
    46. Bit rate mode                  : Constant
    47. Bit rate                       : 640 kb/s
    48. Channel(s)                     : 6 channels
    49. Channel layout                 : L R C LFE Ls Rs
    50. Sampling rate                  : 48.0 kHz
    51. Frame rate                     : 31.250 FPS (1536 SPF)
    52. Compression mode               : Lossy
    53. Stream size                    : 579 MiB (16%)
    54. Title                          : 日语
    55. Language                       : Japanese
    56. Service kind                   : Complete Main
    57. Default                        : Yes
    58. Forced                         : Yes

    59. Audio #2
    60. ID                             : 3
    61. Format                         : AC-3
    62. Format/Info                    : Audio Coding 3
    63. Commercial name                : Dolby Digital
    64. Codec ID                       : A_AC3
    65. Duration                       : 2 h 6 min
    66. Bit rate mode                  : Constant
    67. Bit rate                       : 640 kb/s
    68. Channel(s)                     : 6 channels
    69. Channel layout                 : L R C LFE Ls Rs
    70. Sampling rate                  : 48.0 kHz
    71. Frame rate                     : 31.250 FPS (1536 SPF)
    72. Compression mode               : Lossy
    73. Stream size                    : 579 MiB (16%)
    74. Title                          : 英语
    75. Language                       : English
    76. Service kind                   : Complete Main
    77. Default                        : No
    78. Forced                         : No

    79. Text #1
    80. ID                             : 4
    81. Format                         : ASS
    82. Codec ID                       : S_TEXT/ASS
    83. Codec ID/Info                  : Advanced Sub Station Alpha
    84. Duration                       : 1 h 55 min
    85. Bit rate                       : 40 b/s
    86. Count of elements              : 825
    87. Compression mode               : Lossless
    88. Stream size                    : 34.2 KiB (0%)
    89. Title                          : ASS中简
    90. Language                       : Chinese
    91. Default                        : Yes
    92. Forced                         : Yes

    93. Text #2
    94. ID                             : 5
    95. Format                         : ASS
    96. Codec ID                       : S_TEXT/ASS
    97. Codec ID/Info                  : Advanced Sub Station Alpha
    98. Duration                       : 1 h 55 min
    99. Bit rate                       : 40 b/s
    100. Count of elements              : 825
    101. Compression mode               : Lossless
    102. Stream size                    : 34.2 KiB (0%)
    103. Title                          : ASS中繁
    104. Language                       : Chinese
    105. Default                        : No
    106. Forced                         : No

    107. Text #3
    108. ID                             : 6
    109. Format                         : UTF-8
    110. Codec ID                       : S_TEXT/UTF8
    111. Codec ID/Info                  : UTF-8 Plain Text
    112. Duration                       : 1 h 55 min
    113. Bit rate                       : 19 b/s
    114. Count of elements              : 825
    115. Stream size                    : 16.6 KiB (0%)
    116. Title                          : SRT中简
    117. Language                       : Chinese
    118. Default                        : No
    119. Forced                         : No

    120. Text #4
    121. ID                             : 7
    122. Format                         : UTF-8
    123. Codec ID                       : S_TEXT/UTF8
    124. Codec ID/Info                  : UTF-8 Plain Text
    125. Duration                       : 1 h 55 min
    126. Bit rate                       : 19 b/s
    127. Count of elements              : 825
    128. Stream size                    : 16.6 KiB (0%)
    129. Title                          : SRT中繁
    130. Language                       : Chinese
    131. Default                        : No
    132. Forced                         : No

    133. Text #5
    134. ID                             : 8
    135. Format                         : PGS
    136. Muxing mode                    : zlib
    137. Codec ID                       : S_HDMV/PGS
    138. Codec ID/Info                  : Picture based subtitle format used on BDs/HD-DVDs
    139. Duration                       : 2 h 6 min
    140. Bit rate                       : 8 764 b/s
    141. Count of elements              : 1508
    142. Stream size                    : 7.91 MiB (0%)
    143. Title                          : SUP中简
    144. Language                       : Chinese
    145. Default                        : No
    146. Forced                         : No

    147. Text #6
    148. ID                             : 9
    149. Format                         : PGS
    150. Muxing mode                    : zlib
    151. Codec ID                       : S_HDMV/PGS
    152. Codec ID/Info                  : Picture based subtitle format used on BDs/HD-DVDs
    153. Duration                       : 2 h 6 min
    154. Bit rate                       : 9 170 b/s
    155. Count of elements              : 1508
    156. Stream size                    : 8.27 MiB (0%)
    157. Title                          : SUP中繁
    158. Language                       : Chinese
    159. Default                        : No
    160. Forced                         : No

    161. Text #7
    162. ID                             : 10
    163. Format                         : PGS
    164. Muxing mode                    : zlib
    165. Codec ID                       : S_HDMV/PGS
    166. Codec ID/Info                  : Picture based subtitle format used on BDs/HD-DVDs
    167. Duration                       : 2 h 6 min
    168. Bit rate                       : 6 791 b/s
    169. Count of elements              : 1490
    170. Stream size                    : 6.13 MiB (0%)
    171. Title                          : SUP英字
    172. Language                       : English
    173. Default                        : No
    174. Forced                         : No

    175. Menu
    176. 00:00:00.000                   : en:(01)00:00:00:000
    177. 00:01:29.714                   : en:(02)00:01:29:714
    178. 00:02:51.296                   : en:(03)00:02:51:296
    179. 00:04:27.475                   : en:(04)00:04:27:475
    180. 00:07:12.557                   : en:(05)00:07:12:557
    181. 00:10:17.867                   : en:(06)00:10:17:867
    182. 00:12:34.670                   : en:(07)00:12:34:670
    183. 00:15:08.198                   : en:(08)00:15:08:198
    184. 00:21:31.456                   : en:(09)00:21:31:456
    185. 00:23:20.023                   : en:(10)00:23:20:023
    186. 00:24:50.363                   : en:(11)00:24:50:363
    187. 00:29:15.503                   : en:(12)00:29:15:503
    188. 00:34:00.872                   : en:(13)00:34:00:872
    189. 00:38:15.626                   : en:(14)00:38:15:626
    190. 00:39:38.376                   : en:(15)00:39:38:376
    191. 00:42:12.821                   : en:(16)00:42:12:821
    192. 00:43:26.604                   : en:(17)00:43:26:604
    193. 00:44:50.896                   : en:(18)00:44:50:896
    194. 00:46:30.454                   : en:(19)00:46:30:454
    195. 00:49:15.369                   : en:(20)00:49:15:369
    196. 00:50:19.266                   : en:(21)00:50:19:266
    197. 00:53:41.551                   : en:(22)00:53:41:551
    198. 00:58:08.485                   : en:(23)00:58:08:485
    199. 00:59:24.644                   : en:(24)00:59:24:644
    200. 01:01:51.249                   : en:(25)01:01:51:249
    201. 01:03:32.517                   : en:(26)01:03:32:517
    202. 01:05:53.491                   : en:(27)01:05:53:491
    203. 01:08:57.967                   : en:(28)01:08:57:967
    204. 01:11:13.769                   : en:(29)01:11:13:769
    205. 01:13:18.560                   : en:(30)01:13:18:560
    206. 01:16:24.705                   : en:(31)01:16:24:705
    207. 01:19:11.705                   : en:(32)01:19:11:705
    208. 01:19:39.191                   : en:(33)01:19:39:191
    209. 01:21:55.785                   : en:(34)01:21:55:785
    210. 01:22:57.389                   : en:(35)01:22:57:389
    211. 01:29:58.684                   : en:(36)01:29:58:684
    212. 01:32:17.323                   : en:(37)01:32:17:323
    213. 01:35:30.808                   : en:(38)01:35:30:808
    214. 01:43:27.784                   : en:(39)01:43:27:784
    215. 01:45:04.298                   : en:(40)01:45:04:298
    216. 01:49:07.582                   : en:(41)01:49:07:582
    217. 01:50:17.611                   : en:(42)01:50:17:611
    218. 01:51:33.770                   : en:(43)01:51:33:770
    219. 01:55:13.906                   : en:(44)01:55:13:906
    220. 02:00:42.234                   : en:(45)02:00:42:234
    复制代码











    购买主题 已有 3 人购买  本主题需向作者支付 10 大洋 才能浏览
    声明:本人制作或发布的所有资源仅限论坛会员测试带宽使用!请在测试后24小时内删除!
    严禁非法传播或用于商业用途,对用于商业用途所产生的法律责任,由使用者自负!
    回复

    使用道具 举报

    该用户从未签到

    0

    主题

    148

    帖子

    24

    积分

    入门影迷

    Rank: 1

    积分
    24
    发表于 2020-8-1 19:57:12 | 显示全部楼层
    哇哦,沙发,沙发哦
    回复

    使用道具 举报

  • TA的每日心情
    无聊
    2 小时前
  • 签到天数: 34 天

    [LV.5]常住居民I

    25

    主题

    822

    帖子

    193

    积分

    高级影迷

    Rank: 4

    积分
    193
    发表于 2020-8-1 20:13:55 | 显示全部楼层
    这个好看,谢谢分享
    回复

    使用道具 举报

  • TA的每日心情
    奋斗
    10 小时前
  • 签到天数: 52 天

    [LV.5]常住居民I

    0

    主题

    539

    帖子

    64

    积分

    初级影迷

    Rank: 2

    积分
    64
    发表于 7 天前 | 显示全部楼层
    很好看的啊
    回复

    使用道具 举报

  • TA的每日心情
    开心
    昨天 12:17
  • 签到天数: 280 天

    [LV.8]以坛为家I

    0

    主题

    480

    帖子

    115

    积分

    中级影迷

    Rank: 3Rank: 3

    积分
    115
    发表于 7 天前 | 显示全部楼层
    正好出游戏了         
    回复

    使用道具 举报

  • TA的每日心情
    奋斗
    7 小时前
  • 签到天数: 190 天

    [LV.7]常住居民III

    5

    主题

    1367

    帖子

    383

    积分

    超级影迷

    Rank: 6Rank: 6

    积分
    383
    发表于 6 天前 | 显示全部楼层
    谢谢分享好东西
    回复

    使用道具 举报

  • TA的每日心情
    奋斗
    半小时前
  • 签到天数: 464 天

    [LV.9]以坛为家II

    37

    主题

    5278

    帖子

    642

    积分

    专业影迷

    Rank: 8Rank: 8

    积分
    642
    发表于 6 天前 | 显示全部楼层
    这个真的强大啊~~~
    回复

    使用道具 举报

  • TA的每日心情
    开心
    前天 09:29
  • 签到天数: 112 天

    [LV.6]常住居民II

    0

    主题

    1528

    帖子

    106

    积分

    中级影迷

    Rank: 3Rank: 3

    积分
    106
    发表于 3 天前 | 显示全部楼层
    谢谢分享精彩电影!
    回复

    使用道具 举报

  • TA的每日心情
    开心
    2 小时前
  • 签到天数: 4 天

    [LV.2]偶尔看看I

    0

    主题

    10

    帖子

    21

    积分

    入门影迷

    Rank: 1

    积分
    21
    发表于 昨天 06:51 | 显示全部楼层
    玩最终幻想7重制版之前回顾下电影,感谢楼主
    回复

    使用道具 举报

    您需要登录后才可以回帖 登录 | 立即注册

    本版积分规则

    QQ|Archiver|手机版|小黑屋|影迷乐园  

    GMT+8, 2020-8-9 10:29 , Processed in 0.177144 second(s), 33 queries .

    Powered by Discuz! X3.3

    © 2001-2017 Comsenz Inc.

    快速回复 返回顶部 返回列表