请选择 进入手机版 | 继续访问电脑版

YMLY-影迷乐园-特效字幕 蓝光原盘 1080P 高清动漫电影电视剧

 找回密码
 立即注册
搜索
查看: 34|回复: 2

[美国] [百度][2005][1080P][消消气.S05][英语外挂简体中字][MKV][30.04GB][Curb.Your.Enthusiasm.Complete.S05.1080p.AMZN.WEB-DL.DD+2.0.H264-AJP69]

[复制链接]
  • TA的每日心情
    慵懒
    11 小时前
  • 签到天数: 396 天

    [LV.9]以坛为家II

    541

    主题

    1091

    帖子

    4599

    积分

    超级版主

    Rank: 16Rank: 16Rank: 16Rank: 16

    积分
    4599

    超版勋章版主勋章优秀版主土豪勋章小土豪勋章主题达人百分百好孩子最佳新人影迷男神

    发表于 2020-8-2 02:31:25 | 显示全部楼层 |阅读模式
    字幕为官方译本,已修改了字体。


    ◎译  名 消消气 第五季 / 处女座人生 第五季 / 抑制热情 第五季 / 龟毛人生 第五季
    ◎片  名 Curb Your Enthusiasm Season 5
    ◎年  代 2005
    ◎产  地 美国
    ◎类  别 喜剧
    ◎语  言 英语
    ◎上映日期 2005-09-25(美国)
    ◎IMDb评分  8.1/10 from 881 users
    ◎IMDb链接  https://www.imdb.com/title/tt0551413
    ◎豆瓣评分 9.2/10 from 201 users
    ◎豆瓣链接 https://movie.douban.com/subject/4190156/
    ◎集  数 10
    ◎片  长 30分钟
    ◎导  演 罗伯特·B·维德 Robert B. Weide
    ◎编  剧 拉里·戴维 Larry David
    ◎主  演 拉里·戴维 Larry David
           切瑞·海恩斯 Cheryl Hines
           杰夫·格尔林 Jeff Garlin


    ◎标  签 美剧 | 喜剧 | 美国 | 电视剧 | HBO | LarryDavid | 2005 | larrydavid

    ◎简  介  

      这部剧集是上世纪九十年代最流行的情景喜剧《Seinfeld》的主创之一拉里·大卫(Larry meijubar.net David)自编自演,根据他在洛杉矶影艺圈的生活创造的喜剧。他把《Seinfeld》的风格推向极端化。HBO因是有线电视所以不需要很大的观众圈,所以HBO上的剧集常常风格独具。《抑制热情》显得特别生活化,很是写意,有很多现场发挥,刚开始播时观众圈不大,之后开始名声见长。拉里·大卫凭此剧获艾美奖2000年度喜剧类剧集最佳男主角提名。
      本剧是根据拉里-大卫当初在洛杉矶演艺圈的亲身经历改变而成,并由大卫自编自演而成的喜剧。把《Seinfeld》的风格推向了极端化。通过《抑制热情》让观众看到了大卫的正直、大方和谦虚,这位创作大师通过HBO带给观众无数的欢笑。而剧情游弋在真实与虚构之间,大卫和演员们把真实的洛杉矶生活呈现在银幕上,就仿佛有一架摄影机,随时把那真实的经历实况转播给观众一样。更重要的是,本剧本身是没有剧本的,往往依靠演员们的即兴表演赋予演出进度和新鲜感。而这造就了本剧的变幻莫测和与众不同。

    ◎获奖情况  

      第63届金球奖(2006)
      电视类 最佳音乐/喜剧类剧集(提名)
      电视类 音乐/喜剧类剧集最佳男主角(提名) 拉里·戴维
    1. General
    2. Unique ID                      : 208057766400718307855258431858855895406 (0x9C8677DF0EE0E8F0B41D3F7FA09BE16E)
    3. Complete name                  : E:\影视\消消气\S05\Curb.Your.Enthusiasm.S05E01.The.Larry.David.Sandwich.1080p.AMZN.WEB-DL.DD+2.0.H.264-AJP69.mkv
    4. Format                         : Matroska
    5. Format version                 : Version 4
    6. File size                      : 2.88 GiB
    7. Duration                       : 30 min 16 s
    8. Overall bit rate mode          : Variable
    9. Overall bit rate               : 13.6 Mb/s
    10. Encoded date                   : UTC 2017-08-19 23:46:03
    11. Writing application            : mkvmerge v13.0.0 ('The Juggler') 64bit
    12. Writing library                : libebml v1.3.4 + libmatroska v1.4.5

    13. Video
    14. ID                             : 1
    15. Format                         : AVC
    16. Format/Info                    : Advanced Video Codec
    17. Format profile                 : High@L4
    18. Format settings                : CABAC / 4 Ref Frames
    19. Format settings, CABAC         : Yes
    20. Format settings, Reference fra : 4 frames
    21. Codec ID                       : V_MPEG4/ISO/AVC
    22. Duration                       : 30 min 16 s
    23. Bit rate mode                  : Variable
    24. Bit rate                       : 13.4 Mb/s
    25. Maximum bit rate               : 15.0 Mb/s
    26. Width                          : 1 920 pixels
    27. Height                         : 1 080 pixels
    28. Display aspect ratio           : 16:9
    29. Frame rate mode                : Constant
    30. Frame rate                     : 29.970 (30000/1001) FPS
    31. Color space                    : YUV
    32. Chroma subsampling             : 4:2:0
    33. Bit depth                      : 8 bits
    34. Scan type                      : Progressive
    35. Bits/(Pixel*Frame)             : 0.215
    36. Stream size                    : 2.83 GiB (98%)
    37. Default                        : Yes
    38. Forced                         : No
    39. Color range                    : Limited
    40. Color primaries                : BT.709
    41. Transfer characteristics       : BT.709
    42. Matrix coefficients            : BT.709

    43. Audio
    44. ID                             : 2
    45. Format                         : E-AC-3
    46. Format/Info                    : Enhanced AC-3
    47. Commercial name                : Dolby Digital Plus
    48. Codec ID                       : A_EAC3
    49. Duration                       : 30 min 16 s
    50. Bit rate mode                  : Constant
    51. Bit rate                       : 224 kb/s
    52. Channel(s)                     : 2 channels
    53. Channel layout                 : L R
    54. Sampling rate                  : 48.0 kHz
    55. Frame rate                     : 31.250 FPS (1536 SPF)
    56. Compression mode               : Lossy
    57. Stream size                    : 48.5 MiB (2%)
    58. Language                       : English
    59. Service kind                   : Complete Main
    60. Default                        : Yes
    61. Forced                         : No

    62. Text
    63. ID                             : 3
    64. Format                         : UTF-8
    65. Codec ID                       : S_TEXT/UTF8
    66. Codec ID/Info                  : UTF-8 Plain Text
    67. Duration                       : 28 min 48 s
    68. Bit rate                       : 98 b/s
    69. Count of elements              : 610
    70. Stream size                    : 20.8 KiB (0%)
    71. Language                       : English
    72. Default                        : No
    73. Forced                         : No

    74. Menu
    75. 00:00:00.000                   : en:Studio Logo
    76. 00:00:05.000                   : en:Title Sequence
    77. 00:00:12.000                   : en:Larry shares his drowning story at a party
    78. 00:04:39.000                   : en:Larry answers the phone during intercourse
    79. 00:06:17.000                   : en:Larry shows off his sandwich to his dad
    80. 00:09:12.000                   : en:Nat is rushed to the hospital and the doctor gives an update
    81. 00:11:27.000                   : en:Larry spends time with his dad in the hospital
    82. 00:13:30.000                   : en:Larry asks Ted for his sandwich
    83. 00:17:06.000                   : en:Larry scalps tickets to Temple
    84. 00:19:56.000                   : en:Larry attends Temple
    85. 00:22:14.000                   : en:Larry and Jeff play golf with the doctor
    86. 00:23:06.000                   : en:Larry calls to get a new surgeon
    87. 00:24:24.000                   : en:Nat is adamant he never said Larry was adopted
    88. 00:25:39.000                   : en:Larry goes to the deli to get a sandwich for his dad
    89. 00:28:04.000                   : en:Larry doesn't answer the phone this time
    90. 00:28:56.000                   : en:End Credits

    复制代码






    购买主题 本主题需向作者支付 20 大洋 才能浏览
    回复

    使用道具 举报

  • TA的每日心情
    开心
    12 小时前
  • 签到天数: 401 天

    [LV.9]以坛为家II

    0

    主题

    651

    帖子

    86

    积分

    中级影迷

    Rank: 3Rank: 3

    积分
    86
    发表于 2020-8-2 08:51:48 | 显示全部楼层
    感谢分享!
    回复

    使用道具 举报

  • TA的每日心情

    11 小时前
  • 签到天数: 22 天

    [LV.4]偶尔看看III

    2

    主题

    310

    帖子

    25

    积分

    初级影迷

    Rank: 2

    积分
    25
    发表于 2020-8-3 09:38:14 | 显示全部楼层
    谢谢分享谢谢分享
    回复

    使用道具 举报

    您需要登录后才可以回帖 登录 | 立即注册

    本版积分规则

    QQ|Archiver|手机版|小黑屋|影迷乐园  

    GMT+8, 2020-8-12 20:52 , Processed in 0.160458 second(s), 31 queries .

    Powered by Discuz! X3.3

    © 2001-2017 Comsenz Inc.

    快速回复 返回顶部 返回列表