请选择 进入手机版 | 继续访问电脑版

YMLY-影迷乐园-特效字幕 蓝光原盘 1080P 高清动漫电影电视剧

 找回密码
 立即注册
搜索
查看: 85|回复: 4

[美国] [百度][2006][1080P][迷之屋.失落的房间.迷你剧][中英双语][3集全][MKV][24.77][The.Lost.Room.S01.1080p.AMZN.WEBRip.DD2.0.x264-vlaluk]

[复制链接]
  • TA的每日心情
    奋斗
    16 小时前
  • 签到天数: 36 天

    [LV.5]常住居民I

    25

    主题

    895

    帖子

    127

    积分

    中级影迷

    Rank: 3Rank: 3

    积分
    127
    发表于 2020-8-2 07:00:23 | 显示全部楼层 |阅读模式
    片源从外网扒过来的,目前最清晰的版本,字幕取自字幕库


    Wa


    ◎译  名 谜之屋/失落的房间/密室惊魂/亡命魔界/失落之屋

    ◎片  名 The Lost Room

    ◎年  代 2006

    ◎国  家 美国

    ◎类  别 动作/科幻/悬疑

    ◎语  言 英语

    ◎上映日期 2006-12-11(美国)

    ◎IMDb评分  8.3/10 from 21,585 users

    ◎豆瓣评分 8.5/10 from 9,303 users

    ◎集  数 3

    ◎片  长 90分钟

    ◎导  演 Craig R. Baxley / Michael W. Watkins

    ◎主  演 彼得·克劳斯 Peter Krause

    凯文·波拉克 Kevin Pollak

    朱丽安娜· 玛格丽丝 Julianna Margulies

    彼得·雅各布森 Peter Jacobson

    丹尼斯·克里斯托弗 Dennis Christopher

    艾丽·范宁 Elle Fanning

    ◎ 简介


    故事发生在阳光旅馆的10号房,这是一个神奇的房间,其中发生的事情早已经脱离了能够用科学解释的范畴。这个房间里,每一样物品都被赋予了一种特殊的能力,拥有了一件物品,就能够随心所欲的使用它的能力。当这个消息不胫而走的时候,各路人士怀揣着各种各样的目的从世界各地聚集到了10号房间,然而他们并不知道的事,得到就要付出,这付出可能是身体上的、感情上的,也有可能是生命。

    一次偶然中, 警察米勒(彼得·克劳斯 Peter Krause 饰)得到了一把神秘的钥匙,而这把钥匙正归属于10号房间,与此同时,米勒的女儿亦在房间里无故失踪,为了找到心爱的女儿,米勒踏上了充满危险和劫难的旅程。

    1. D:\The.Lost.Room.S01.1080p.AMZN.WEBRip.DD2.0.x264-vlaluk[rartv]\The.Lost.Room.S01E01.The.Key.and.the.Clock.1080p.AMZN.WEB-DL.DD2.0.H.264-vlaluk.mkv
    2.    General
    3.       Unique ID : 258943755832505377258078003604315772411 (0xC2CEC0DA09A96E40016F81D64BD915FB)
    4.       Complete name : D:\The.Lost.Room.S01.1080p.AMZN.WEBRip.DD2.0.x264-vlaluk[rartv]\The.Lost.Room.S01E01.The.Key.and.the.Clock.1080p.AMZN.WEB-DL.DD2.0.H.264-vlaluk.mkv
    5.       Format : Matroska
    6.       Format version : Version 4 / Version 2
    7.       File size : 8.60 GiB
    8.       Duration : 1 h 27 min
    9.       Overall bit rate mode : Variable
    10.       Overall bit rate : 14.0 Mb/s
    11.       Encoded date : UTC 2020-08-01 12:40:36
    12.       Writing application : mkvmerge v47.0.0 ('Black Flag') 64-bit
    13.       Writing library : libebml v1.3.10 + libmatroska v1.5.2
    14.    Video #1
    15.       ID : 1
    16.       Format : AVC
    17.       Format/Info : Advanced Video Codec
    18.       Format profile : High@L4
    19.       Format settings : CABAC / 4 Ref Frames
    20.       Format settings, CABAC : Yes
    21.       Format settings, ReFrames : 4 frames
    22.       Codec ID : V_MPEG4/ISO/AVC
    23.       Duration : 1 h 27 min
    24.       Bit rate mode : Variable
    25.       Bit rate : 13.8 Mb/s
    26.       Maximum bit rate : 15.0 Mb/s
    27.       Width : 1 920 pixels
    28.       Height : 1 080 pixels
    29.       Display aspect ratio : 16:9
    30.       Frame rate mode : Constant
    31.       Frame rate : 23.976 (24000/1001) FPS
    32.       Color space : YUV
    33.       Chroma subsampling : 4:2:0
    34.       Bit depth : 8 bits
    35.       Scan type : Progressive
    36.       Bits/(Pixel*Frame) : 0.278
    37.       Stream size : 8.46 GiB (98%)
    38.       Writing library : x264 core 148 r2623 d5b2374
    39.       Language : English
    40.       Default : Yes
    41.       Forced : No
    42.       Color range : Limited
    43.       Color primaries : BT.709
    44.       Transfer characteristics : BT.709
    45.       Matrix coefficients : BT.709
    46.    Audio #2
    47.       ID : 2
    48.       Format : E-AC-3
    49.       Format/Info : Enhanced Audio Coding 3
    50.       Codec ID : A_EAC3
    51.       Duration : 1 h 27 min
    52.       Bit rate mode : Constant
    53.       Bit rate : 224 kb/s
    54.       Channel(s) : 2 channels
    55.       Channel positions : Front: L R
    56.       Sampling rate : 48.0 kHz
    57.       Frame rate : 187.500 FPS (256 SPF)
    58.       Compression mode : Lossy
    59.       Stream size : 140 MiB (2%)
    60.       Language : English
    61.       Service kind : Complete Main
    62.       Default : Yes
    63.       Forced : No
    64.    Text #3
    65.       ID : 3
    66.       Format : ASS
    67.       Codec ID : S_TEXT/ASS
    68.       Codec ID/Info : Advanced Sub Station Alpha
    69.       Duration : 1 h 26 min
    70.       Bit rate : 220 b/s
    71.       Count of elements : 971
    72.       Compression mode : Lossless
    73.       Stream size : 139 KiB (0%)
    74.       Default : Yes
    75.       Forced : No
    复制代码










    购买主题 已有 3 人购买  本主题需向作者支付 20 大洋 才能浏览
    回复

    使用道具 举报

  • TA的每日心情
    开心
    20 小时前
  • 签到天数: 101 天

    [LV.6]常住居民II

    2

    主题

    167

    帖子

    92

    积分

    中级影迷

    Rank: 3Rank: 3

    积分
    92
    发表于 2020-8-2 22:30:50 | 显示全部楼层
    感谢楼主分享
    回复

    使用道具 举报

  • TA的每日心情

    12 小时前
  • 签到天数: 22 天

    [LV.4]偶尔看看III

    2

    主题

    310

    帖子

    25

    积分

    初级影迷

    Rank: 2

    积分
    25
    发表于 2020-8-3 09:37:49 | 显示全部楼层
    谢谢分享谢谢分享
    回复

    使用道具 举报

  • TA的每日心情
    郁闷
    2020-7-26 13:16
  • 签到天数: 13 天

    [LV.3]偶尔看看II

    1

    主题

    205

    帖子

    215

    积分

    高级影迷

    Rank: 4

    积分
    215
    发表于 2020-8-3 15:25:58 | 显示全部楼层
    感谢楼主分享
    回复

    使用道具 举报

  • TA的每日心情
    开心
    2020-3-16 00:57
  • 签到天数: 2 天

    [LV.1]初来乍到

    0

    主题

    537

    帖子

    659

    积分

    专业影迷

    Rank: 8Rank: 8

    积分
    659
    发表于 2020-8-4 22:02:19 | 显示全部楼层
    感谢楼主的分享
    回复

    使用道具 举报

    您需要登录后才可以回帖 登录 | 立即注册

    本版积分规则

    QQ|Archiver|手机版|小黑屋|影迷乐园  

    GMT+8, 2020-8-12 21:14 , Processed in 0.148374 second(s), 31 queries .

    Powered by Discuz! X3.3

    © 2001-2017 Comsenz Inc.

    快速回复 返回顶部 返回列表