请选择 进入手机版 | 继续访问电脑版

YMLY-影迷乐园-特效字幕 蓝光原盘 1080P 高清动漫电影电视剧

 找回密码
 立即注册
搜索
查看: 44|回复: 3

[英国] [百度][2017][1080P][橘衫男子][中英字幕][2集全][MKV][2.75GB][Man.In.An.Orange.Shirt.2017.1080p.HDTV.H264-MTB]

[复制链接]
  • TA的每日心情

    19 小时前
  • 签到天数: 149 天

    [LV.7]常住居民III

    207

    主题

    687

    帖子

    1752

    积分

    超级版主

    Rank: 16Rank: 16Rank: 16Rank: 16

    积分
    1752

    超版勋章版主勋章土豪勋章小土豪勋章最佳新人十二生肖之猴双鱼座勋章百分百好孩子精华勋章

    发表于 2020-8-2 09:42:17 | 显示全部楼层 |阅读模式
    下载说明:

    百度网盘分享极其不稳定,如有链接失效,请第一时间站内短消息通知我,上线后会第一时间补发!



    ◎译  名 橘衫男子 / 橙衫男子
    ◎片  名 Man in an Orange Shirt
    ◎年  代 2017
    ◎产  地 英国
    ◎语  言 英语
    ◎上映日期 2017-07-31(英国)
    ◎IMDb评分  8.0/10 from 2925 users
    ◎IMDb链接  https://www.imdb.com/title/tt6255500
    ◎豆瓣评分 8.4/10 from 6098 users
    ◎豆瓣链接 https://movie.douban.com/subject/26837905/
    ◎集  数 2
    ◎片  长 60分钟
    ◎导  演 迈克尔·塞缪尔斯 Michael Samuels
    ◎编  剧 帕特里克·盖尔 Patrick Gale
    ◎主  演 朱利安·莫里斯 Julian Morris
           瓦妮莎·雷德格瑞夫 Vanessa Redgrave
           奥利弗·杰森-科恩 Oliver Jackson-Cohen
           大卫·吉雅西 David Gyasi
           埃迪·阿诺德 Eddie Arnold
           本·巴克 Ben Barker
           托米·巴斯托 Tommy Bastow
           亚瑟·贝特曼 Arthur Bateman
           劳拉·卡尔迈克尔 Laura Carmichael
           弗拉米妮亚·辛克 Flaminia Cinque
           保罗·克莱顿 Paul Clayton
           安琪儿·库碧 Angel Coulby
           乔安娜·大卫 Joanna David
           弗朗西斯·德·拉·图瓦 Frances de la Tour
           菲尔·邓斯特 Phil Dunster
           James McArdle

    ◎简  介  

      该剧讲述了一个家庭里发生在二战刚结束和当今时代的同志爱情故事,以一幅名为橘衫男子的油画作为引线展现了上世纪同志爱恋的艰难和现今同爱的坎坷。

    1. General
    2. Unique ID                      : 117934875132927472899852556030079836894 (0x58B96E45ABFBC735E1D4193EE632A2DE)
    3. Complete name                  : man.in.an.orange.shirt.s01e01.1080p.hdtv.h264-mtb.mkv
    4. Format                         : Matroska
    5. Format version                 : Version 4
    6. File size                      : 1.36 GiB
    7. Duration                       : 59 min 11 s
    8. Overall bit rate               : 3 289 kb/s
    9. Encoded date                   : UTC 2020-08-01 23:40:32
    10. Writing application            : mkvmerge v47.0.0 ('Black Flag') 64-bit
    11. Writing library                : libebml v1.3.10 + libmatroska v1.5.2

    12. Video
    13. ID                             : 1
    14. Format                         : AVC
    15. Format/Info                    : Advanced Video Codec
    16. Format profile                 : High@L4
    17. Format settings                : CABAC / 4 Ref Frames
    18. Format settings, CABAC         : Yes
    19. Format settings, Reference fra : 4 frames
    20. Codec ID                       : V_MPEG4/ISO/AVC
    21. Duration                       : 59 min 11 s
    22. Bit rate                       : 3 094 kb/s
    23. Width                          : 1 920 pixels
    24. Height                         : 1 080 pixels
    25. Display aspect ratio           : 16:9
    26. Frame rate mode                : Constant
    27. Frame rate                     : 25.000 FPS
    28. Standard                       : Component
    29. Color space                    : YUV
    30. Chroma subsampling             : 4:2:0
    31. Bit depth                      : 8 bits
    32. Scan type                      : MBAFF
    33. Scan type, store method        : Interleaved fields
    34. Scan order                     : Top Field First
    35. Bits/(Pixel*Frame)             : 0.060
    36. Stream size                    : 1.28 GiB (94%)
    37. Language                       : English
    38. Default                        : Yes
    39. Forced                         : No
    40. Color range                    : Limited
    41. Color primaries                : BT.709
    42. Transfer characteristics       : BT.709
    43. Matrix coefficients            : BT.709

    44. Audio
    45. ID                             : 2
    46. Format                         : AC-3
    47. Format/Info                    : Audio Coding 3
    48. Commercial name                : Dolby Digital
    49. Codec ID                       : A_AC3
    50. Duration                       : 59 min 11 s
    51. Bit rate mode                  : Constant
    52. Bit rate                       : 192 kb/s
    53. Channel(s)                     : 2 channels
    54. Channel layout                 : L R
    55. Sampling rate                  : 48.0 kHz
    56. Frame rate                     : 31.250 FPS (1536 SPF)
    57. Compression mode               : Lossy
    58. Stream size                    : 81.3 MiB (6%)
    59. Language                       : English
    60. Service kind                   : Complete Main
    61. Default                        : Yes
    62. Forced                         : No

    63. Text
    64. ID                             : 3
    65. Format                         : ASS
    66. Codec ID                       : S_TEXT/ASS
    67. Codec ID/Info                  : Advanced Sub Station Alpha
    68. Duration                       : 59 min 2 s
    69. Bit rate                       : 145 b/s
    70. Count of elements              : 1357
    71. Compression mode               : Lossless
    72. Stream size                    : 63.1 KiB (0%)
    73. Default                        : Yes
    74. Forced                         : No
    复制代码





    购买主题 已有 1 人购买  本主题需向作者支付 10 大洋 才能浏览
    声明:本人制作或发布的所有资源仅限论坛会员测试带宽使用!请在测试后24小时内删除!
    严禁非法传播或用于商业用途,对用于商业用途所产生的法律责任,由使用者自负!
    回复

    使用道具 举报

  • TA的每日心情
    奋斗
    15 小时前
  • 签到天数: 36 天

    [LV.5]常住居民I

    25

    主题

    854

    帖子

    181

    积分

    高级影迷

    Rank: 4

    积分
    181
    发表于 2020-8-2 09:50:59 | 显示全部楼层
    谢谢分享!
    回复

    使用道具 举报

  • TA的每日心情

    10 小时前
  • 签到天数: 22 天

    [LV.4]偶尔看看III

    2

    主题

    310

    帖子

    25

    积分

    初级影迷

    Rank: 2

    积分
    25
    发表于 2020-8-3 09:37:11 | 显示全部楼层
    谢谢分享谢谢分享
    回复

    使用道具 举报

  • TA的每日心情
    开心
    昨天 06:56
  • 签到天数: 52 天

    [LV.5]常住居民I

    3

    主题

    630

    帖子

    35

    积分

    初级影迷

    Rank: 2

    积分
    35
    发表于 2020-8-4 16:58:12 | 显示全部楼层
    感谢分享,支持一下
    回复

    使用道具 举报

    您需要登录后才可以回帖 登录 | 立即注册

    本版积分规则

    QQ|Archiver|手机版|小黑屋|影迷乐园  

    GMT+8, 2020-8-12 19:52 , Processed in 0.134762 second(s), 31 queries .

    Powered by Discuz! X3.3

    © 2001-2017 Comsenz Inc.

    快速回复 返回顶部 返回列表