请选择 进入手机版 | 继续访问电脑版

YMLY-影迷乐园-特效字幕 蓝光原盘 1080P 高清动漫电影电视剧

 找回密码
 立即注册
搜索
查看: 129|回复: 8

[英国] [百度][1984][1080P][福尔摩斯探案集S01-S02][内封中英.中字][MKV] [13.05GB][Sherlock.Holmes.1984.Season.S01-S02.1080p.BluRay.x265.HEVC.10bit-RCVR]

[复制链接]
  • TA的每日心情
    开心
    13 小时前
  • 签到天数: 82 天

    [LV.6]常住居民II

    15

    主题

    249

    帖子

    118

    积分

    中级影迷

    Rank: 3Rank: 3

    积分
    118
    发表于 2020-8-2 17:17:45 | 显示全部楼层 |阅读模式
    感谢龙哥给与RCVR版本,本人上网找到合适字幕进行了简单封装。
    感谢字幕制作者与日版原盘压制者RCVR,如若转载,请标明原作者。




    第一季与第二季
    导演: 大卫·卡森
    编剧: 阿瑟·柯南·道尔
    主演: 杰瑞米·布雷特 / 大卫·布克 / 罗莎莉·威廉姆斯
    类型: 剧情 / 悬疑 / 犯罪
    制片国家/地区: 英国
    语言: 英语
    首播: 1984-04-24(英国)
    集数: 13
    单集片长: 60分钟
    又名: 福尔摩斯冒险史 / 福尔摩斯探案集之福尔摩斯冒险史
    IMDb链接: tt0086661
    1. General
    2. Unique ID                      : 287989366393840204503843217695591180319 (0xD8A8BC04478F1025C286A1640B05281F)
    3. Format                         : Matroska
    4. Format version                 : Version 4
    5. File size                      : 854 MiB
    6. Duration                       : 53 min 26 s
    7. Overall bit rate               : 2 235 kb/s
    8. Movie name                     : E01
    9. Encoded date                   : UTC 2020-08-01 07:47:10
    10. Writing application            : mkvmerge v46.0.0 ('No Deeper Escape') 64-bit
    11. Writing library                : libebml v1.3.10 + libmatroska v1.5.2
    12. Cover                          : Yes
    13. Attachments                    : cover.jpg

    14. Video
    15. ID                             : 1
    16. Format                         : HEVC
    17. Format/Info                    : High Efficiency Video Coding
    18. Format profile                 : Main 10@L4@Main
    19. Codec ID                       : V_MPEGH/ISO/HEVC
    20. Duration                       : 53 min 26 s
    21. Bit rate                       : 1 962 kb/s
    22. Width                          : 1 440 pixels
    23. Height                         : 1 080 pixels
    24. Display aspect ratio           : 4:3
    25. Frame rate mode                : Constant
    26. Frame rate                     : 23.976 (24000/1001) FPS
    27. Color space                    : YUV
    28. Chroma subsampling             : 4:2:0
    29. Bit depth                      : 10 bits
    30. Bits/(Pixel*Frame)             : 0.053
    31. Stream size                    : 750 MiB (88%)
    32. Writing library                : x265 2.7+8-613d9f443769:[Windows][MSVC 1900][64 bit] 10bit
    33. Encoding settings              : cpuid=1173503 / frame-threads=3 / numa-pools=8 / wpp / no-pmode / no-pme / no-psnr / no-ssim / log-level=2 / input-csp=1 / input-res=1440x1080 / interlace=0 / total-frames=76872 / level-idc=0 / high-tier=1 / uhd-bd=0 / ref=5 / no-allow-non-conformance / no-repeat-headers / annexb / no-aud / no-hrd / info / hash=0 / no-temporal-layers / open-gop / min-keyint=23 / keyint=250 / gop-lookahead=0 / bframes=8 / b-adapt=2 / b-pyramid / bframe-bias=0 / rc-lookahead=80 / lookahead-slices=4 / scenecut=40 / radl=0 / no-intra-refresh / ctu=64 / min-cu-size=8 / rect / no-amp / max-tu-size=32 / tu-inter-depth=1 / tu-intra-depth=1 / limit-tu=0 / rdoq-level=2 / dynamic-rd=0.00 / no-ssim-rd / signhide / no-tskip / nr-intra=0 / nr-inter=0 / no-constrained-intra / no-strong-intra-smoothing / max-merge=4 / limit-refs=3 / limit-modes / me=3 / subme=3 / merange=57 / temporal-mvp / weightp / weightb / no-analyze-src-pics / deblock=-3:-3 / no-sao / no-sao-non-deblock / rd=4 / no-early-skip / no-rskip / no-fast-intra / no-tskip-fast / no-cu-lossless / no-b-intra / no-splitrd-skip / rdpenalty=0 / psy-rd=1.20 / psy-rdoq=1.40 / no-rd-refine / no-lossless / cbqpoffs=0 / crqpoffs=0 / rc=crf / crf=21.5 / qcomp=0.60 / qpstep=4 / stats-write=0 / stats-read=0 / ipratio=1.40 / pbratio=1.30 / aq-mode=2 / aq-strength=1.00 / cutree / zone-count=0 / no-strict-cbr / qg-size=32 / no-rc-grain / qpmax=69 / qpmin=0 / no-const-vbv / sar=0 / overscan=0 / videoformat=5 / range=0 / colorprim=2 / transfer=2 / colormatrix=2 / chromaloc=0 / display-window=0 / max-cll=0,0 / min-luma=0 / max-luma=1023 / log2-max-poc-lsb=8 / vui-timing-info / vui-hrd-info / slices=1 / no-opt-qp-pps / no-opt-ref-list-length-pps / no-multi-pass-opt-rps / scenecut-bias=0.05 / no-opt-cu-delta-qp / aq-motion / no-hdr / no-hdr-opt / no-dhdr10-opt / analysis-reuse-level=5 / scale-factor=0 / refine-intra=0 / refine-inter=0 / refine-mv=0 / no-limit-sao / ctu-info=0 / no-lowpass-dct / refine-mv-type=0 / copy-pic=1 / max-ausize-factor=1.0
    34. Default                        : Yes
    35. Forced                         : No

    36. Audio #1
    37. ID                             : 2
    38. Format                         : AAC LC
    39. Format/Info                    : Advanced Audio Codec Low Complexity
    40. Codec ID                       : A_AAC-2
    41. Duration                       : 53 min 26 s
    42. Bit rate                       : 139 kb/s
    43. Channel(s)                     : 2 channels
    44. Channel layout                 : L R
    45. Sampling rate                  : 48.0 kHz
    46. Frame rate                     : 46.875 FPS (1024 SPF)
    47. Compression mode               : Lossy
    48. Delay relative to video        : 20 ms
    49. Stream size                    : 53.1 MiB (6%)
    50. Language                       : English
    51. Default                        : Yes
    52. Forced                         : No

    53. Audio #2
    54. ID                             : 3
    55. Format                         : AAC LC SBR
    56. Format/Info                    : Advanced Audio Codec Low Complexity with Spectral Band Replication
    57. Commercial name                : HE-AAC
    58. Format settings                : Explicit
    59. Codec ID                       : A_AAC-2
    60. Duration                       : 53 min 26 s
    61. Bit rate                       : 80.0 kb/s
    62. Channel(s)                     : 2 channels
    63. Channel layout                 : L R
    64. Sampling rate                  : 48.0 kHz
    65. Frame rate                     : 23.438 FPS (2048 SPF)
    66. Compression mode               : Lossy
    67. Delay relative to video        : 40 ms
    68. Stream size                    : 30.6 MiB (4%)
    69. Language                       : Japanese
    70. Default                        : No
    71. Forced                         : No

    72. Text #1
    73. ID                             : 4
    74. Format                         : PGS
    75. Muxing mode                    : zlib
    76. Codec ID                       : S_HDMV/PGS
    77. Codec ID/Info                  : Picture based subtitle format used on BDs/HD-DVDs
    78. Duration                       : 49 min 15 s
    79. Bit rate                       : 78.4 kb/s
    80. Count of elements              : 1766
    81. Stream size                    : 27.6 MiB (3%)
    82. Language                       : Japanese
    83. Default                        : No
    84. Forced                         : No

    85. Text #2
    86. ID                             : 5
    87. Format                         : PGS
    88. Muxing mode                    : zlib
    89. Codec ID                       : S_HDMV/PGS
    90. Codec ID/Info                  : Picture based subtitle format used on BDs/HD-DVDs
    91. Duration                       : 49 min 15 s
    92. Bit rate                       : 89.0 kb/s
    93. Count of elements              : 1761
    94. Stream size                    : 31.4 MiB (4%)
    95. Language                       : English
    96. Default                        : No
    97. Forced                         : No

    98. Text #3
    99. ID                             : 6
    100. Format                         : UTF-8
    101. Codec ID                       : S_TEXT/UTF8
    102. Codec ID/Info                  : UTF-8 Plain Text
    103. Duration                       : 52 min 10 s
    104. Bit rate                       : 108 b/s
    105. Count of elements              : 657
    106. Stream size                    : 41.5 KiB (0%)
    107. Default                        : Yes
    108. Forced                         : No

    109. Text #4
    110. ID                             : 7
    111. Format                         : UTF-8
    112. Codec ID                       : S_TEXT/UTF8
    113. Codec ID/Info                  : UTF-8 Plain Text
    114. Duration                       : 51 min 51 s
    115. Bit rate                       : 50 b/s
    116. Count of elements              : 646
    117. Stream size                    : 19.2 KiB (0%)
    118. Default                        : No
    119. Forced                         : No

    120. Menu
    121. 00:00:00.000                   : ja:Chapter 1 / ja:Chapter 2
    122. 00:00:47.547                   : ja:Chapter 3
    123. 00:02:22.017                   : ja:Chapter 4
    124. 00:18:39.159                   : ja:Chapter 5
    125. 00:24:36.975                   : ja:Chapter 6
    126. 00:33:24.627                   : ja:Chapter 7
    127. 00:39:11.808                   : ja:Chapter 8
    128. 00:46:29.828                   : ja:Chapter 9
    129. 00:50:40.454                   : ja:Chapter 10
    130. 00:52:17.634                   : ja:Chapter 11
    复制代码




    购买主题 已有 1 人购买  本主题需向作者支付 50 大洋 才能浏览
    不要轻视一个年轻人,因为他有一个不可预知的未来。——希特勒
    回复

    使用道具 举报

  • TA的每日心情
    郁闷
    12 小时前
  • 签到天数: 84 天

    [LV.6]常住居民II

    4

    主题

    254

    帖子

    18

    积分

    入门影迷

    Rank: 1

    积分
    18
    发表于 2020-8-2 20:00:31 | 显示全部楼层
    画质真是清晰!感谢大神的辛苦制作和分享!期待后续部分!
    回复

    使用道具 举报

  • TA的每日心情

    19 小时前
  • 签到天数: 55 天

    [LV.5]常住居民I

    1

    主题

    574

    帖子

    75

    积分

    中级影迷

    Rank: 3Rank: 3

    积分
    75
    发表于 2020-8-3 00:22:13 | 显示全部楼层
    非常精彩的
    回复

    使用道具 举报

  • TA的每日心情

    19 小时前
  • 签到天数: 55 天

    [LV.5]常住居民I

    1

    主题

    574

    帖子

    75

    积分

    中级影迷

    Rank: 3Rank: 3

    积分
    75
    发表于 2020-8-3 00:22:41 | 显示全部楼层
    这么老的片还有这么精彩的画质
    回复

    使用道具 举报

  • TA的每日心情
    慵懒
    6 小时前
  • 签到天数: 135 天

    [LV.7]常住居民III

    6

    主题

    1945

    帖子

    104

    积分

    中级影迷

    Rank: 3Rank: 3

    积分
    104
    QQ
    发表于 2020-8-3 07:15:06 | 显示全部楼层
    谢谢分享谢谢分享
    回复

    使用道具 举报

  • TA的每日心情

    10 小时前
  • 签到天数: 22 天

    [LV.4]偶尔看看III

    2

    主题

    310

    帖子

    25

    积分

    初级影迷

    Rank: 2

    积分
    25
    发表于 2020-8-3 09:36:14 | 显示全部楼层
    谢谢分享谢谢分享
    回复

    使用道具 举报

  • TA的每日心情

    11 小时前
  • 签到天数: 16 天

    [LV.4]偶尔看看III

    0

    主题

    123

    帖子

    45

    积分

    初级影迷

    Rank: 2

    积分
    45
    发表于 2020-8-3 09:44:02 | 显示全部楼层
    非常支持!
    回复

    使用道具 举报

  • TA的每日心情
    擦汗
    前天 16:23
  • 签到天数: 47 天

    [LV.5]常住居民I

    0

    主题

    205

    帖子

    111

    积分

    中级影迷

    Rank: 3Rank: 3

    积分
    111
    发表于 2020-8-3 19:01:36 | 显示全部楼层
    感谢辛苦制作和分享
    回复

    使用道具 举报

  • TA的每日心情
    开心
    昨天 06:56
  • 签到天数: 52 天

    [LV.5]常住居民I

    3

    主题

    630

    帖子

    35

    积分

    初级影迷

    Rank: 2

    积分
    35
    发表于 2020-8-4 16:57:12 | 显示全部楼层
    感谢分享,支持一下
    回复

    使用道具 举报

    您需要登录后才可以回帖 登录 | 立即注册

    本版积分规则

    QQ|Archiver|手机版|小黑屋|影迷乐园  

    GMT+8, 2020-8-12 19:37 , Processed in 0.149008 second(s), 32 queries .

    Powered by Discuz! X3.3

    © 2001-2017 Comsenz Inc.

    快速回复 返回顶部 返回列表