请选择 进入手机版 | 继续访问电脑版

YMLY-影迷乐园-特效字幕 蓝光原盘 1080P 高清动漫电影电视剧

 找回密码
 立即注册
搜索
查看: 3775|回复: 54

[日本] [百度][2020][1080P][半泽直树S02.第二季][日语.内封简中字幕][10集全][MKV][9.77GB][Hanzawa.Naoki.S02.2020.HDTV.1080p.x265.10bit-Yumi]

  [复制链接]
  • TA的每日心情
    奋斗
    2020-2-21 00:36
  • 签到天数: 656 天

    [LV.9]以坛为家II

    7499

    主题

    9379

    帖子

    5万

    积分

    超级版主

    与齐同行,是最初的梦想,也是一辈子的执着~

    Rank: 16Rank: 16Rank: 16Rank: 16

    积分
    55453

    内测勋章最佳新人十二生肖之猴VIP包月勋章影迷男神小土豪勋章土豪勋章富甲一方精华勋章金话筒主题达人灌水之王

    发表于 2020-8-12 10:33:44 | 显示全部楼层 |阅读模式
    下载说明:

    百度网盘分享极其不稳定,如有链接失效,请第一时间站内短消息通知我,上线后会第一时间补发!请大家多多谅解!电驴链接只能115会员离线下载,其它工具都下载不了!


    之前发布的版本体积偏大,现在更新一个Yumi姐压制的小体积版本,内封简中字幕



    ◎译  名 半泽直树2 / 半沢直樹~リベンジ編~ / 半泽直树 第二季 / 半泽直树:复仇篇
    ◎片  名 半沢直樹2
    ◎年  代 2020
    ◎产  地 日本
    ◎类  别 剧情
    ◎语  言 日语
    ◎上映日期 2020-07-19(日本)
    ◎豆瓣评分 0/10 from 0 users
    ◎豆瓣链接 https://movie.douban.com/subject/25806638/
    ◎集  数 10
    ◎导  演 福泽克雄 Katsuo Fukuzawa
    ◎编  剧 丑尾健太郎 Kentarô Ushio
    ◎主  演 堺雅人 Masato Sakai
           上户彩 Aya Ueto
           井川遥 Haruka Igawa
           贺来贤人 Kento Kaku
           今田美樱 Mio Imada
           尾上松也 Matsuya Onoe
           柄本明 Akira Emoto
           古田新太 Arata Furuta
           市川猿之助 Ennosuke Ichikawa IV
           北大路欣也 Kinya Kitaoji
           香川照之 Teruyuki Kagawa
           及川光博 Mitsuhiro Oikawa
           片冈爱之助 Ainosuke Kataoka
           池田成志 Narushi Ikeda
           山崎银之丞 Yamazaki Ginnojou
           角田晃广 Akihiro Kakuta
           今井朋彦 Tomohiko Imai
           粟岛瑞丸
           土田英生 Hideo Tsuchida
           小久保寿人
           加藤啓
           丸一太 Itta Maru
           持田将史
           户次重幸 Shigeyuki Totsugi
           益冈彻 Tôru Masuoka
           井上芳雄 Yoshio Inoue
           南野阳子 Yôko Minamino
           山根基世
           筒井道隆 Michitaka Tsutsui
           江口德子 Noriko Eguchi


    ◎标  签 堺雅人 | 日剧 | 日本 | 续作 | 2020 | 剧情 | 人性 | 电视剧

    ◎简  介  

      创下日本平成年代收视奇迹的电视剧《半泽直树》续作。
      本作的故事将承接前作,从半泽被调往东京中央证券任营业企划部长开始。某天,东京中央证券接到了一桩巨额交易。一家大型IT企业企图动用1500亿日元进行恶意收购。这笔交易的规模创造了东京中央证券交易史上的新纪录。此时的半泽还不知道一场新的同银行之间的斗争即将拉开大幕……在新的岗位上,半泽能否继续迎难而上,化解各种难题与阻碍,对那些百般刁难的对手能否再次“加倍奉还”?!
      本作原作为作家池井户润的半泽系列小说中的《迷失一代的逆袭》与《银翼的伊卡洛斯》二作。
    1. General
    2. Format                         : Matroska
    3. Format version                 : Version 4
    4. File size                      : 1.11 GiB
    5. Duration                       : 1 h 0 min
    6. Overall bit rate               : 2 638 kb/s
    7. Encoded date                   : UTC 2020-08-10 16:00:01
    8. Writing application            : mkvmerge v9.9.0 ('Pick Up') 64bit
    9. Writing library                : libebml v1.3.4 + libmatroska v1.4.5

    10. Video
    11. ID                             : 1
    12. Format                         : HEVC
    13. Format/Info                    : High Efficiency Video Coding
    14. Format profile                 : Main 10@L4@Main
    15. Codec ID                       : V_MPEGH/ISO/HEVC
    16. Duration                       : 1 h 0 min
    17. Bit rate                       : 2 447 kb/s
    18. Width                          : 1 920 pixels
    19. Height                         : 1 080 pixels
    20. Display aspect ratio           : 16:9
    21. Frame rate mode                : Constant
    22. Frame rate                     : 29.970 (30000/1001) FPS
    23. Color space                    : YUV
    24. Chroma subsampling             : 4:2:0
    25. Bit depth                      : 10 bits
    26. Bits/(Pixel*Frame)             : 0.039
    27. Stream size                    : 1.03 GiB (93%)
    28. Writing library                : x265 2.8:[Windows][GCC 5.1.0][64 bit] 10bit
    29. Encoding settings              : cpuid=1111039 / frame-threads=2 / wpp / no-pmode / no-pme / no-psnr / no-ssim / log-level=2 / input-csp=1 / input-res=1920x1080 / interlace=0 / total-frames=0 / level-idc=0 / high-tier=1 / uhd-bd=0 / ref=3 / no-allow-non-conformance / no-repeat-headers / annexb / no-aud / no-hrd / info / hash=0 / no-temporal-layers / open-gop / min-keyint=30 / keyint=300 / gop-lookahead=0 / bframes=4 / b-adapt=2 / b-pyramid / bframe-bias=0 / rc-lookahead=20 / lookahead-slices=6 / scenecut=40 / radl=0 / no-intra-refresh / ctu=64 / min-cu-size=8 / no-rect / no-amp / max-tu-size=32 / tu-inter-depth=1 / tu-intra-depth=1 / limit-tu=0 / rdoq-level=0 / dynamic-rd=0.00 / no-ssim-rd / signhide / no-tskip / nr-intra=0 / nr-inter=0 / no-constrained-intra / strong-intra-smoothing / max-merge=2 / limit-refs=3 / no-limit-modes / me=1 / subme=2 / merange=57 / temporal-mvp / weightp / no-weightb / no-analyze-src-pics / deblock=0:0 / sao / no-sao-non-deblock / rd=3 / no-early-skip / rskip / no-fast-intra / no-tskip-fast / no-cu-lossless / no-b-intra / no-splitrd-skip / rdpenalty=0 / psy-rd=0.00 / psy-rdoq=0.00 / no-rd-refine / no-lossless / cbqpoffs=0 / crqpoffs=0 / rc=crf / crf=19.0 / qcomp=0.60 / qpstep=4 / stats-write=0 / stats-read=0 / ipratio=1.40 / pbratio=1.30 / aq-mode=2 / aq-strength=1.00 / cutree / zone-count=0 / no-strict-cbr / qg-size=32 / no-rc-grain / qpmax=69 / qpmin=0 / no-const-vbv / sar=1 / overscan=0 / videoformat=5 / range=0 / colorprim=2 / transfer=2 / colormatrix=2 / chromaloc=0 / display-window=0 / max-cll=0,0 / min-luma=0 / max-luma=1023 / log2-max-poc-lsb=8 / vui-timing-info / vui-hrd-info / slices=1 / no-opt-qp-pps / no-opt-ref-list-length-pps / no-multi-pass-opt-rps / scenecut-bias=0.05 / no-opt-cu-delta-qp / no-aq-motion / no-hdr / no-hdr-opt / no-dhdr10-opt / no-idr-recovery-sei / analysis-reuse-level=5 / scale-factor=0 / refine-intra=0 / refine-inter=0 / refine-mv=0 / no-limit-sao / ctu-info=0 / no-lowpass-dct / refine-mv-type=0 / copy-pic=1 / max-ausize-factor=1.0 / no-dynamic-refine / no-single-sei
    30. Default                        : Yes
    31. Forced                         : No

    32. Audio
    33. ID                             : 3
    34. Format                         : AAC LC
    35. Format/Info                    : Advanced Audio Codec Low Complexity
    36. Codec ID                       : A_AAC-2
    37. Duration                       : 1 h 0 min
    38. Bit rate                       : 192 kb/s
    39. Channel(s)                     : 2 channels
    40. Channel layout                 : L R
    41. Sampling rate                  : 48.0 kHz
    42. Frame rate                     : 46.875 FPS (1024 SPF)
    43. Compression mode               : Lossy
    44. Stream size                    : 81.1 MiB (7%)
    45. Default                        : Yes
    46. Forced                         : No

    47. Text
    48. ID                             : 2
    49. Format                         : ASS
    50. Codec ID                       : S_TEXT/ASS
    51. Codec ID/Info                  : Advanced Sub Station Alpha
    52. Duration                       : 59 min 40 s
    53. Bit rate                       : 262 b/s
    54. Count of elements              : 1120
    55. Compression mode               : Lossless
    56. Stream size                    : 115 KiB (0%)
    57. Language                       : Chinese
    58. Default                        : Yes
    59. Forced                         : Yes

    复制代码






    购买主题 已有 37 人购买  本主题需向作者支付 20 大洋 才能浏览
    郑重声明:
    本人提供的所有影视作品均是在网上搜集,任何涉及商业盈利目的均不得使用,否则产生的一切后果将由您自己承担!
    本人不对本人所发布的任何内容负任何法律责任!该下载内容仅做宽带测试使用,请在下载后24小时内删除。请购买正版!
    本人列出的文件没有保存在本站的服务器上,本人仅负责连接,本人对被传播文件的内容一无所知。
    如侵犯视频原作者或发行商版权,请联系本人删除!
    回复

    使用道具 举报

  • TA的每日心情

    昨天 07:30
  • 签到天数: 514 天

    [LV.9]以坛为家II

    38

    主题

    5856

    帖子

    752

    积分

    专业影迷

    Rank: 8Rank: 8

    积分
    752
    发表于 2020-8-12 11:13:10 | 显示全部楼层
    感谢朋友精彩发布!
    回复

    使用道具 举报

  • TA的每日心情
    无聊
    昨天 20:38
  • 签到天数: 168 天

    [LV.7]常住居民III

    0

    主题

    236

    帖子

    37

    积分

    初级影迷

    Rank: 2

    积分
    37
    发表于 2020-8-12 11:24:22 | 显示全部楼层
    很好的日剧,感谢分享
    回复

    使用道具 举报

  • TA的每日心情
    难过
    昨天 10:23
  • 签到天数: 173 天

    [LV.7]常住居民III

    0

    主题

    233

    帖子

    40

    积分

    初级影迷

    Rank: 2

    积分
    40
    发表于 2020-8-12 11:52:06 | 显示全部楼层
    感谢分享,准备洗版
    回复

    使用道具 举报

  • TA的每日心情
    开心
    3 小时前
  • 签到天数: 94 天

    [LV.6]常住居民II

    0

    主题

    196

    帖子

    41

    积分

    初级影迷

    Rank: 2

    积分
    41
    发表于 2020-8-12 12:22:01 | 显示全部楼层
    感谢朋友精彩发布!
    回复

    使用道具 举报

  • TA的每日心情
    开心
    2020-9-15 06:53
  • 签到天数: 158 天

    [LV.7]常住居民III

    6

    主题

    2199

    帖子

    125

    积分

    中级影迷

    Rank: 3Rank: 3

    积分
    125
    QQ
    发表于 2020-8-12 13:31:20 | 显示全部楼层
    谢谢分享谢谢分享
    回复

    使用道具 举报

  • TA的每日心情
    开心
    前天 18:18
  • 签到天数: 84 天

    [LV.6]常住居民II

    0

    主题

    223

    帖子

    20

    积分

    入门影迷

    Rank: 1

    积分
    20
    发表于 2020-8-12 15:04:16 | 显示全部楼层
    压成265体积特别好 就是字幕太靠底部  拿另一贴的外挂字幕完美了
    回复

    使用道具 举报

  • TA的每日心情
    开心
    2020-6-7 21:35
  • 签到天数: 1 天

    [LV.1]初来乍到

    0

    主题

    130

    帖子

    204

    积分

    高级影迷

    Rank: 4

    积分
    204
    发表于 2020-8-12 15:15:20 | 显示全部楼层
    谢谢分享!
    回复

    使用道具 举报

  • TA的每日心情
    开心
    昨天 05:33
  • 签到天数: 162 天

    [LV.7]常住居民III

    0

    主题

    424

    帖子

    23

    积分

    入门影迷

    Rank: 1

    积分
    23
    发表于 2020-8-12 15:17:58 | 显示全部楼层
    神剧回归啊 这个体积电脑看还不错
    回复

    使用道具 举报

  • TA的每日心情
    擦汗
    昨天 07:04
  • 签到天数: 56 天

    [LV.5]常住居民I

    0

    主题

    180

    帖子

    61

    积分

    初级影迷

    Rank: 2

    积分
    61
    发表于 2020-8-12 17:25:24 | 显示全部楼层
    是的 其他论坛发布的一集体积相当于一部电影

    点评

    什么论坛,快告诉我  详情 回复 发表于 2020-9-6 12:56
    回复

    使用道具 举报

    您需要登录后才可以回帖 登录 | 立即注册

    本版积分规则

    QQ|Archiver|手机版|小黑屋|影迷乐园

    GMT+8, 2020-9-30 03:37 , Processed in 0.107828 second(s), 30 queries .

    Powered by Discuz! X3.4

    Copyright © 2001-2020, Tencent Cloud.

    快速回复 返回顶部 返回列表