请选择 进入手机版 | 继续访问电脑版

YMLY-影迷乐园-特效字幕 蓝光原盘 1080P 高清动漫电影电视剧

 找回密码
 立即注册
搜索
查看: 974|回复: 39

[韩国] [百度][2020][1080P][恶之花][李准基.文彩元][韩语.外挂简中字幕][16集全+SP][MP4][48.35GB][Flower.of.Evil.2020.1080P.WEB-DL.H264.AAC-YueTV]

[复制链接]
  • TA的每日心情
    擦汗
    5 小时前
  • 签到天数: 195 天

    [LV.7]常住居民III

    224

    主题

    775

    帖子

    2469

    积分

    超级版主

    Rank: 16Rank: 16Rank: 16Rank: 16

    积分
    2469

    超版勋章版主勋章土豪勋章小土豪勋章最佳新人十二生肖之猴双鱼座勋章百分百好孩子精华勋章

    发表于 2020-8-25 19:05:09 | 显示全部楼层 |阅读模式
    下载说明:

    百度网盘分享极其不稳定,如有链接失效,请第一时间站内短消息通知我,上线后会第一时间补发!


    ----更新完毕 完结撒花 一周后取消置顶 ----

    ----应求加入制作特辑SP 字幕已更新完毕----

    ----感谢会员@cyz_87大神提供SP屏字的翻译!----





    ◎译  名  恶之花 / 邪恶之花 / Flower of Evil / The Flower of Evil
    ◎年  代  2020
    ◎产  地  韩国
    ◎类  别  剧情
    ◎语  言  韩语
    ◎上映日期  2020-07-29(韩国)
    ◎IMDb评星   ★★★★★★★★★
    ◎IMDb评分   8.9/10 from 609 users
    ◎IMDb链接   https://www.imdb.com/title/tt11691684/
    ◎豆瓣评星  ★★★★☆
    ◎豆瓣评分  9.1/10 from 94,222 users
    ◎豆瓣链接  https://movie.douban.com/subject/34948080/
    ◎单集片长  70分钟
    ◎集  数  16
    ◎导  演  金哲圭 / Chul Kyu Kim
    ◎演  员  李准基 / Joon-gi Lee | 饰 白熙成 / 都贤秀
          文彩元 / Chae-won Moon | 饰 车智媛
          张熙珍 / Hie-jin Jang | 饰 都海秀
          徐贤宇 / Seo Hyeon-woo | 饰 金茂振
          孙钟学 / Jong-Hak Son | 饰 白满优
          南基爱 / Giae Nam | 饰 孔美慈
          赵庆淑 / Kyung-sook Jo | 饰 文英玉
          林娜荣 / Lim Na Young | 饰 少年 都海秀
          杨慧珍 / Hyejin Yang | 饰 姜弼英
          郑泽贤 / Taek-hyeon Jeong | 饰 少年 金茂振
          崔代勋 / Dae-hoon Choi | 饰 李宇哲
          崔英俊 / Young-jun Choi | 饰 崔在燮
          林哲亨 / Lim Chul-hyung | 饰 尹尚弼
          申贤宗 / Hyeon-jong Sin | 饰 卢满植
          崔秉默 / Byung-mo Choi | 饰 都敏锡
          洪瑞俊 / Seo-joon Hong | 饰 警察署长
          尹炳熙 / Yoon Byeong-hee | 饰 朴庆春
          朴秀妍 / Soo-yeon Park | 饰 裴银淑
          尹熙锡 / Hee-seok Yun | 饰 金尚镇
          金建 / Kim Geon | 饰 金仁瑞 / EP.1
          朴贤俊 / Park Hyun-Joon | 饰 少年 都贤秀
          郑书妍 / Seo-yeon Jung | 饰 白银河
          金秀吾 / Soo-oh Kim | 饰 林浩俊
          车成济 / Seong-je Cha | 饰 童年 都贤秀
           李彩尹  Lee Chae-yoon | 饰 童年 都海秀
          崔英佑 / Yeong-woo Choi | 饰 酒保
          金美华 / Mi-hwa Kim | 饰 黄正顺
          金基茂 / Ki-moo Kim | 饰 廉相哲
          金智勋 / Ji-hoon Kim | 饰 白熙成
          李珠妍 / Lee Ju-Yeon | 饰 朴瑞英
           崔權洙 Choi Kwon-soo  | 饰 少年 白熙成
          韩秀妍 / Su-yeon Han | 饰 郑美淑
    ◎编  剧 柳晶熙 / Yoo Jung-Hee

    ◎标  签 悬疑 | 犯罪 | 韩国 | 人性 | 爱情 | 韩国电视剧tvn恶之花 | 剧情 | 2020

    ◎简  介 

      讲述为隐藏残酷过往而改变形象的男子,与追踪其过往的重案组刑警结婚后的故事。
      李准基饰演看似为妻子和女儿无私付出的居家型男,但实际上不带感情去欺骗妻子而得到现有的一切,文彩元饰演深爱着丈夫的天真妻子,却要遭遇亲手为丈夫上手铐逮捕。
      
    1. General
    2. Complete name                  : Flower.of.Evil.E01.1080P.WEB-DL.H264.AAC-YueTV.mp4
    3. Format                         : MPEG-4
    4. Format profile                 : Base Media
    5. Codec ID                       : isom (isom/iso2/avc1/mp41)
    6. File size                      : 2.49 GiB
    7. Duration                       : 1 h 1 min
    8. Overall bit rate mode          : Variable
    9. Overall bit rate               : 5 765 kb/s
    10. Writing application            : Lavf57.83.100

    11. Video
    12. ID                             : 1
    13. Format                         : AVC
    14. Format/Info                    : Advanced Video Codec
    15. Format profile                 : High@L4
    16. Format settings                : CABAC / 1 Ref Frames
    17. Format settings, CABAC         : Yes
    18. Format settings, Reference fra : 1 frame
    19. Format settings, GOP           : M=1, N=60
    20. Codec ID                       : avc1
    21. Codec ID/Info                  : Advanced Video Coding
    22. Duration                       : 1 h 1 min
    23. Duration_FirstFrame            : 67 ms
    24. Bit rate mode                  : Constant
    25. Bit rate                       : 5 500 kb/s
    26. Width                          : 1 920 pixels
    27. Height                         : 1 080 pixels
    28. Display aspect ratio           : 16:9
    29. Frame rate mode                : Constant
    30. Frame rate                     : 29.970 (30000/1001) FPS
    31. Color space                    : YUV
    32. Chroma subsampling             : 4:2:0
    33. Bit depth                      : 8 bits
    34. Scan type                      : Progressive
    35. Bits/(Pixel*Frame)             : 0.089
    36. Stream size                    : 2.37 GiB (95%)
    37. Codec configuration box        : avcC

    38. Audio
    39. ID                             : 2
    40. Format                         : AAC LC
    41. Format/Info                    : Advanced Audio Codec Low Complexity
    42. Codec ID                       : mp4a-40-2
    43. Duration                       : 1 h 1 min
    44. Bit rate mode                  : Variable
    45. Bit rate                       : 258 kb/s
    46. Channel(s)                     : 2 channels
    47. Channel layout                 : L R
    48. Sampling rate                  : 48.0 kHz
    49. Frame rate                     : 46.875 FPS (1024 SPF)
    50. Compression mode               : Lossy
    51. Stream size                    : 113 MiB (4%)
    52. Default                        : Yes
    53. Alternate group                : 1
    复制代码















    购买主题 已有 23 人购买  本主题需向作者支付 40 大洋 才能浏览
    回复

    使用道具 举报

  • TA的每日心情
    开心
    昨天 07:54
  • 签到天数: 238 天

    [LV.7]常住居民III

    6

    主题

    1973

    帖子

    450

    积分

    专业影迷

    Rank: 8Rank: 8

    积分
    450
    发表于 2020-8-25 23:43:00 | 显示全部楼层
    感谢分享恶之花
    回复

    使用道具 举报

  • TA的每日心情
    开心
    昨天 11:41
  • 签到天数: 34 天

    [LV.5]常住居民I

    0

    主题

    68

    帖子

    56

    积分

    初级影迷

    Rank: 2

    积分
    56
    发表于 2020-8-25 23:56:21 | 显示全部楼层
    这个韩剧厉害了,最近正在热播,谢谢楼主的分享!
    回复

    使用道具 举报

  • TA的每日心情
    擦汗
    5 小时前
  • 签到天数: 102 天

    [LV.6]常住居民II

    2

    主题

    1093

    帖子

    223

    积分

    高级影迷

    Rank: 4

    积分
    223
    发表于 2020-8-26 00:08:27 | 显示全部楼层
    谢谢分享了
    回复

    使用道具 举报

  • TA的每日心情
    开心
    昨天 07:09
  • 签到天数: 87 天

    [LV.6]常住居民II

    1

    主题

    858

    帖子

    183

    积分

    高级影迷

    Rank: 4

    积分
    183
    发表于 2020-8-26 00:10:25 | 显示全部楼层
    谢谢楼主分享
    回复

    使用道具 举报

  • TA的每日心情
    开心
    5 小时前
  • 签到天数: 41 天

    [LV.5]常住居民I

    0

    主题

    101

    帖子

    12

    积分

    入门影迷

    Rank: 1

    积分
    12
    发表于 2020-8-26 00:32:09 | 显示全部楼层
    感谢分享恶之花
    回复

    使用道具 举报

  • TA的每日心情
    开心
    昨天 13:21
  • 签到天数: 60 天

    [LV.6]常住居民II

    1

    主题

    647

    帖子

    114

    积分

    中级影迷

    Rank: 3Rank: 3

    积分
    114
    发表于 2020-8-26 08:04:05 | 显示全部楼层
    感谢分享!
    回复

    使用道具 举报

  • TA的每日心情
    奋斗
    昨天 14:58
  • 签到天数: 65 天

    [LV.6]常住居民II

    4

    主题

    800

    帖子

    69

    积分

    初级影迷

    Rank: 2

    积分
    69
    发表于 2020-8-26 09:17:05 | 显示全部楼层
    谢谢楼主分享
    回复

    使用道具 举报

  • TA的每日心情
    开心
    2020-9-15 06:53
  • 签到天数: 158 天

    [LV.7]常住居民III

    6

    主题

    2199

    帖子

    125

    积分

    中级影迷

    Rank: 3Rank: 3

    积分
    125
    QQ
    发表于 2020-8-26 11:05:21 | 显示全部楼层
    谢谢分享谢谢分享
    回复

    使用道具 举报

  • TA的每日心情
    开心
    昨天 10:49
  • 签到天数: 166 天

    [LV.7]常住居民III

    1

    主题

    1506

    帖子

    169

    积分

    高级影迷

    Rank: 4

    积分
    169
    发表于 2020-8-26 11:56:22 | 显示全部楼层
    多谢分享!
    回复

    使用道具 举报

    您需要登录后才可以回帖 登录 | 立即注册

    本版积分规则

    QQ|Archiver|手机版|小黑屋|影迷乐园

    GMT+8, 2020-9-30 05:39 , Processed in 0.110090 second(s), 30 queries .

    Powered by Discuz! X3.4

    Copyright © 2001-2020, Tencent Cloud.

    快速回复 返回顶部 返回列表