请选择 进入手机版 | 继续访问电脑版

YMLY-影迷乐园-特效字幕 蓝光原盘 1080P 高清动漫电影电视剧

 找回密码
 立即注册
搜索
查看: 394|回复: 13

[美国] [百度][2020][1080P][黑袍纠察队.第二季][英语.简繁官中][更至第6集][MKV][21.18GB][The.Boys.S02.1080p.AMZN.WEBRip.DDP5.1.x264-NTb]

[复制链接]
  • TA的每日心情
    擦汗
    4 小时前
  • 签到天数: 195 天

    [LV.7]常住居民III

    224

    主题

    775

    帖子

    2469

    积分

    超级版主

    Rank: 16Rank: 16Rank: 16Rank: 16

    积分
    2469

    超版勋章版主勋章土豪勋章小土豪勋章最佳新人十二生肖之猴双鱼座勋章百分百好孩子精华勋章

    发表于 2020-9-5 10:57:26 | 显示全部楼层 |阅读模式
    下载说明:

    百度网盘分享极其不稳定,如有链接失效,请第一时间站内短消息通知我,上线后会第一时间补发!


    ----9月5号开播 首周放出3集 之后每周更1集 共8集----



    ◎译  名 黑袍纠察队 第二季/黑衣小队/男孩帮/七痞郎/英雄克星
    ◎片  名 The Boys Season 2
    ◎年  代 2020
    ◎产  地 美国
    ◎类  别 喜剧/动作/科幻/犯罪
    ◎语  言 英语
    ◎上映日期 2020-09-04(美国)
    ◎IMDb评分  8.7/10 from 847 users
    ◎IMDb链接  https://www.imdb.com/title/tt10666364/
    ◎豆瓣评分 9.2/10 from 1152 users
    ◎豆瓣链接 https://douban.com/subject/34626347/
    ◎集  数 8
    ◎片  长 60分钟
    ◎导  演 菲利浦·斯格里西亚 Philip Sgriccia / 塞巴斯蒂安·席尔瓦 Sebastián Silva
    ◎编  剧 加思·恩尼斯 Garth Ennis / 艾力克·克莱普科 Eric Kripke / 达里克·罗伯逊 Darick Robertson
    ◎主  演 卡尔·厄本 Karl Urban
           杰克·奎德 Jack Quaid
           安东尼·斯塔尔 Antony Starr
           艾琳·莫里亚蒂 Erin Moriarty
           多米妮克·麦克艾丽戈特 Dominique McElligott
           杰西·厄舍 Jessie Usher
           拉兹·阿隆索 Laz Alonso
           切斯·克劳福 Chace Crawford
           托默·卡蓬 Tomer Kapon
           凯伦·福原 Karen Fukuhara
           内森·米切尔 Nathan Mitchell
           蔻碧·米纳菲 Colby Minifie
           珊特尔·范圣滕 Shantel VanSanten
           妮卡·埃利奥特 Nneka Elliott
           阿雅·卡什 Aya Cash
           莱拉·罗宾斯 Laila Robins
           乔丹娜·拉茹瓦 Jordana Lajoie
           吉姆·比弗 Jim Beaver
           周豪 Ho Chow
           卡梅伦·克罗维蒂 Cameron Crovetti
           克劳迪娅·多米特 Claudia Doumit
           贾森·加里-斯坦福德 Jason Gray-Stanford
           肖恩·阿什莫 Shawn Ashmore
           吉安卡罗·埃斯波西托 Giancarlo Esposito
           罗维娜·亚瓦里 Lovina Yavari
           P·J·伯恩 P.J. Byrne
           萨娜·阿萨德 Sana Asad
           大卫·S·李 David S. Lee
           珍妮特·罗斯·阮 Janet Rose Nguyen
           卡罗琳·莱斯利 Caroline Lesley
           塞德妮·佩内 Cydney Penner
           埃米迪奥·洛佩斯 Emidio Lopes
           桑登·佩雷拉 Sanden Perera
           丹尼尔·基思·莫里森 Daniel Keith Morrison
           阿丽斯塔·阿欣 Arista Arhin
           朱莉娅·迪扬 Julia Dyan
           阿什利·科莫 Ashley Comeau
           维罗妮卡·洛 Veronica Low
           梅迪·福利 Maddy Foley
           萨默·萨利姆 Samer Salem
           考特尼·J·史蒂文斯 Courtenay J. Stevens
           马克·安东尼·克鲁帕 Mark Antony Krupa
           艾达·H·陈 Ada H. Chan
           斯图亚特·道林 Stuart Dowling
           尼玛·纳泽里 Neema Nazeri
           凯姆·怀亚特·麦肯齐 Kym Wyatt McKenzie

    ◎标  签 反英雄 | 犯罪 | DC | 美国 | 剧情 | 2020 | Amazon | 改编

    ◎简  介

      
      剧中讲述一群被旁人称为「The Boys」的义警,他们专门对付因为自身能力而腐败﹑黑化的超级英雄。而他们的大目标就是金玉其外,败絮其中的英雄团队「The Seven」,以及管理团队﹑掩盖黑料的企业「Vought」。

    1. General
    2. Unique ID                      : 250059867241215440235945462668251097871 (0xBC1FC753B39D5DCED56B3E78444BEB0F)
    3. Complete name                  : The.Boys.S02E01.The.Big.Ride.1080p.AMZN.WEBRip.DDP5.1.x264-NTb[rarbg]\The.Boys.S02E01.The.Big.Ride.1080p.AMZN.WEB-DL.DDP5.1.H.264-NTb.mkv
    4. Format                         : Matroska
    5. Format version                 : Version 4
    6. File size                      : 3.60 GiB
    7. Duration                       : 1 h 2 min
    8. Overall bit rate               : 8 181 kb/s
    9. Encoded date                   : UTC 2020-09-04 01:00:49
    10. Writing application            : mkvmerge v45.0.0 ('Heaven in Pennies') 64-bit
    11. Writing library                : libebml v1.3.10 + libmatroska v1.5.2

    12. Video
    13. ID                             : 1
    14. Format                         : AVC
    15. Format/Info                    : Advanced Video Codec
    16. Format profile                 : High@L4
    17. Format settings                : CABAC / 4 Ref Frames
    18. Format settings, CABAC         : Yes
    19. Format settings, Reference fra : 4 frames
    20. Codec ID                       : V_MPEG4/ISO/AVC
    21. Duration                       : 1 h 2 min
    22. Bit rate mode                  : Constant
    23. Bit rate                       : 7 535 kb/s
    24. Nominal bit rate               : 10 000 kb/s
    25. Width                          : 1 920 pixels
    26. Height                         : 800 pixels
    27. Display aspect ratio           : 2.40:1
    28. Frame rate mode                : Constant
    29. Frame rate                     : 23.976 (24000/1001) FPS
    30. Color space                    : YUV
    31. Chroma subsampling             : 4:2:0
    32. Bit depth                      : 8 bits
    33. Scan type                      : Progressive
    34. Bits/(Pixel*Frame)             : 0.205
    35. Stream size                    : 3.31 GiB (92%)
    36. Default                        : Yes
    37. Forced                         : No
    38. Color range                    : Limited
    39. Color primaries                : BT.709
    40. Transfer characteristics       : BT.709
    41. Matrix coefficients            : BT.709

    42. Audio
    43. ID                             : 2
    44. Format                         : E-AC-3
    45. Format/Info                    : Enhanced AC-3
    46. Commercial name                : Dolby Digital Plus
    47. Codec ID                       : A_EAC3
    48. Duration                       : 1 h 2 min
    49. Bit rate mode                  : Constant
    50. Bit rate                       : 640 kb/s
    51. Channel(s)                     : 6 channels
    52. Channel layout                 : L R C LFE Ls Rs
    53. Sampling rate                  : 48.0 kHz
    54. Frame rate                     : 31.250 FPS (1536 SPF)
    55. Compression mode               : Lossy
    56. Stream size                    : 288 MiB (8%)
    57. Language                       : English
    58. Service kind                   : Complete Main
    59. Default                        : Yes
    60. Forced                         : No

    61. Text #29
    62. ID                             : 31
    63. Format                         : UTF-8
    64. Codec ID                       : S_TEXT/UTF8
    65. Codec ID/Info                  : UTF-8 Plain Text
    66. Duration                       : 1 h 2 min
    67. Bit rate                       : 58 b/s
    68. Count of elements              : 903
    69. Stream size                    : 26.8 KiB (0%)
    70. Title                          : 中文(简体)
    71. Language                       : Chinese
    72. Default                        : No
    73. Forced                         : No

    74. Text #30
    75. ID                             : 32
    76. Format                         : UTF-8
    77. Codec ID                       : S_TEXT/UTF8
    78. Codec ID/Info                  : UTF-8 Plain Text
    79. Duration                       : 1 h 2 min
    80. Bit rate                       : 54 b/s
    81. Count of elements              : 903
    82. Stream size                    : 24.7 KiB (0%)
    83. Title                          : 中文(繁體)
    84. Language                       : Chinese
    85. Default                        : No
    86. Forced                         : No

    87. Menu
    88. 00:00:00.000                   : en:Amazon Original
    89. 00:00:05.000                   : en:Ratings
    90. 00:00:15.000                   : en:Previously On
    91. 00:02:58.000                   : en:Collateral damage negotiations
    92. 00:06:11.000                   : en:A memorial service
    93. 00:09:42.000                   : en:Post-funeral interview
    94. 00:11:30.000                   : en:Title Sequence | Hughie in bed
    95. 00:11:37.000                   : en:Getting ready
    96. 00:14:30.000                   : en:Secret meetings
    97. 00:17:17.000                   : en:The Deep has a meltdown
    98. 00:18:42.000                   : en:Watching TV
    99. 00:19:48.000                   : en:Team arguments
    100. 00:21:20.000                   : en:Homelander is in power
    101. 00:27:03.000                   : en:Making money
    102. 00:30:02.000                   : en:A new patient
    103. 00:31:37.000                   : en:Watching the tapes
    104. 00:33:43.000                   : en:Focus groups
    105. 00:35:08.000                   : en:A safe space
    106. 00:38:19.000                   : en:What to do next
    107. 00:43:05.000                   : en:Black mail
    108. 00:46:40.000                   : en:New kid on the block
    109. 00:48:50.000                   : en:CIA meeting
    110. 00:51:23.000                   : en:Homelander confronts Stan
    111. 00:56:07.000                   : en:An unexpected visit
    112. 00:56:40.000                   : en:Lies and deceit
    113. 01:00:56.000                   : en:End Credits
    复制代码











    购买主题 已有 6 人购买  本主题需向作者支付 20 大洋 才能浏览
    回复

    使用道具 举报

  • TA的每日心情
    开心
    昨天 10:49
  • 签到天数: 166 天

    [LV.7]常住居民III

    1

    主题

    1506

    帖子

    169

    积分

    高级影迷

    Rank: 4

    积分
    169
    发表于 2020-9-5 11:34:58 | 显示全部楼层
    多谢分享!
    回复

    使用道具 举报

  • TA的每日心情
    开心
    昨天 07:09
  • 签到天数: 87 天

    [LV.6]常住居民II

    1

    主题

    858

    帖子

    183

    积分

    高级影迷

    Rank: 4

    积分
    183
    发表于 2020-9-5 11:48:35 | 显示全部楼层
    谢谢楼主分享
    回复

    使用道具 举报

  • TA的每日心情
    慵懒
    昨天 12:43
  • 签到天数: 77 天

    [LV.6]常住居民II

    29

    主题

    1328

    帖子

    104

    积分

    中级影迷

    Rank: 3Rank: 3

    积分
    104
    发表于 2020-9-5 12:30:14 | 显示全部楼层
    hbo那部异星灾变也可以搞个同步
    回复

    使用道具 举报

  • TA的每日心情
    奋斗
    昨天 14:58
  • 签到天数: 65 天

    [LV.6]常住居民II

    4

    主题

    800

    帖子

    69

    积分

    初级影迷

    Rank: 2

    积分
    69
    发表于 2020-9-5 12:31:52 | 显示全部楼层
    谢谢楼主分享
    回复

    使用道具 举报

  • TA的每日心情
    慵懒
    昨天 06:58
  • 签到天数: 20 天

    [LV.4]偶尔看看III

    0

    主题

    55

    帖子

    6

    积分

    入门影迷

    Rank: 1

    积分
    6
    发表于 2020-9-5 13:44:13 | 显示全部楼层
    看看如何能不能看
    回复

    使用道具 举报

  • TA的每日心情
    开心
    昨天 17:53
  • 签到天数: 106 天

    [LV.6]常住居民II

    0

    主题

    168

    帖子

    15

    积分

    入门影迷

    Rank: 1

    积分
    15
    发表于 2020-9-5 14:53:53 | 显示全部楼层
    感谢分享好资源
    回复

    使用道具 举报

  • TA的每日心情

    2019-10-24 00:15
  • 签到天数: 5 天

    [LV.2]偶尔看看I

    0

    主题

    806

    帖子

    43

    积分

    初级影迷

    Rank: 2

    积分
    43
    发表于 2020-9-5 19:32:27 | 显示全部楼层
    感谢分享。      
    回复

    使用道具 举报

  • TA的每日心情
    开心
    前天 07:03
  • 签到天数: 96 天

    [LV.6]常住居民II

    10

    主题

    1118

    帖子

    87

    积分

    中级影迷

    Rank: 3Rank: 3

    积分
    87
    发表于 2020-9-5 23:57:28 | 显示全部楼层
    感谢分享,支持一下
    回复

    使用道具 举报

  • TA的每日心情
    开心
    前天 07:03
  • 签到天数: 96 天

    [LV.6]常住居民II

    10

    主题

    1118

    帖子

    87

    积分

    中级影迷

    Rank: 3Rank: 3

    积分
    87
    发表于 2020-9-7 10:17:08 | 显示全部楼层
    感谢分享的电视剧,支持一下
    回复

    使用道具 举报

    您需要登录后才可以回帖 登录 | 立即注册

    本版积分规则

    QQ|Archiver|手机版|小黑屋|影迷乐园

    GMT+8, 2020-9-30 04:55 , Processed in 0.135707 second(s), 28 queries .

    Powered by Discuz! X3.4

    Copyright © 2001-2020, Tencent Cloud.

    快速回复 返回顶部 返回列表