请选择 进入手机版 | 继续访问电脑版

YMLY-影迷乐园-特效字幕 蓝光原盘 1080P 高清动漫电影电视剧

 找回密码
 立即注册
搜索
查看: 194|回复: 12

[日本] [115][2019][1080P][我可能不会爱你][日语.繁中字幕][足立梨花.白洲迅][16集全][MKV][19.16GB][I.Don't.Love.You.Yet.S01.1080p.KKTV.WEB-DL.AAC2.0.H264-Ao]

[复制链接]
  • TA的每日心情
    奋斗
    2020-2-21 00:36
  • 签到天数: 656 天

    [LV.9]以坛为家II

    7499

    主题

    9379

    帖子

    5万

    积分

    超级版主

    与齐同行,是最初的梦想,也是一辈子的执着~

    Rank: 16Rank: 16Rank: 16Rank: 16

    积分
    55453

    内测勋章最佳新人十二生肖之猴VIP包月勋章影迷男神小土豪勋章土豪勋章富甲一方精华勋章金话筒主题达人灌水之王

    发表于 2020-9-12 07:37:19 | 显示全部楼层 |阅读模式
    下载说明:

    近期百度云和谐的厉害,本剧将采用115网盘的方式分享,只能115网盘会员接收并下载,购买前请看清楚!


    ----转载自OurBits,感谢压制和原发布人员,特此鸣谢!----



    ◎译  名 我可能不会爱你 / 我可能还不能爱你 / 我还不爱你
    ◎片  名 僕はまだ君を愛さないことができる
    ◎年  代 2019
    ◎产  地 日本
    ◎类  别 爱情
    ◎语  言 日语
    ◎上映日期 2019-07-15(日本)
    ◎IMDb评分  6.9/10 from 31 users
    ◎IMDb链接  https://www.imdb.com/title/tt10649430
    ◎豆瓣评分 7.4/10 from 2800 users
    ◎豆瓣链接 https://movie.douban.com/subject/30359428/
    ◎集  数 16
    ◎片  长 43分钟
    ◎导  演 熊坂出 Izuru Kumasaka
    ◎编  剧 新井友香 Yûka Arai / 古贺文惠
    ◎主  演 足立梨花 Rika Adachi
           白洲迅 Jin Shirasu
           浅香航大 Kôdai Asaka
           松本妃代 Kiyo Matsumoto
           佐久间悠 Yu Sakuma
           小出早织 Saori Koide
           中村久美 Kumi Nakamura
           永野宗典 Munenori Nagano
           广川三宪 Mitsunori Hirokawa
           加藤和子 Kazuko Kato
           中林大树 Taiki Nakabayashi
           丰田艾莉 Ellie Toyota


    ◎标  签 日本 | 爱情 | 翻拍 | 2019 | 看过的电视剧 | 电视剧 | 治愈 | 文艺

    ◎简  介  

      女主角为“御手洗阳”,职业是制鞋公司的女菁英,男主角为“石田莲”,是一名都市开发的地产公司职员,两人是大学同学,彼此之间有个赌注:“在女方29岁生日前,两人谁先结婚另外一个人就要送上30万的大红包”……两人断言彼此之间绝无发展可能,为了赢得赌注,男主角主动追求公司女后辈,女主角也和前男友重逢,故事就此展开。
    1. General
    2. Unique ID                      : 6615026102480120394027199328855276484 (0x4FA01F7AB0FC5F117BE35E809743BC4)
    3. Format                         : Matroska
    4. Format version                 : Version 4 / Version 2
    5. File size                      : 1.14 GiB
    6. Duration                       : 46 min 0 s
    7. Overall bit rate               : 3 563 kb/s
    8. Encoded date                   : UTC 2019-07-24 15:08:50
    9. Writing application            : mkvmerge v31.0.0 ('Dolores In A Shoestand') 64-bit
    10. Writing library                : libebml v1.3.6 + libmatroska v1.4.9

    11. Video
    12. ID                             : 1
    13. Format                         : AVC
    14. Format/Info                    : Advanced Video Codec
    15. Format profile                 : High@L4.1
    16. Format settings                : CABAC / 5 Ref Frames
    17. Format settings, CABAC         : Yes
    18. Format settings, ReFrames      : 5 frames
    19. Format settings, GOP           : M=1, N=30
    20. Codec ID                       : V_MPEG4/ISO/AVC
    21. Duration                       : 46 min 0 s
    22. Bit rate                       : 3 340 kb/s
    23. Width                          : 1 920 pixels
    24. Height                         : 1 080 pixels
    25. Display aspect ratio           : 16:9
    26. Frame rate mode                : Constant
    27. Frame rate                     : 29.970 (30000/1001) FPS
    28. Color space                    : YUV
    29. Chroma subsampling             : 4:2:0
    30. Bit depth                      : 8 bits
    31. Scan type                      : Progressive
    32. Bits/(Pixel*Frame)             : 0.054
    33. Stream size                    : 1.08 GiB (95%)
    34. Writing library                : x264 core 142
    35. Encoding settings              : cabac=1 / ref=5 / deblock=1:0:0 / analyse=0x3:0x113 / me=umh / subme=9 / psy=1 / psy_rd=1.00:0.00 / mixed_ref=1 / me_range=32 / chroma_me=1 / trellis=1 / 8x8dct=1 / cqm=0 / deadzone=21,11 / fast_pskip=1 / chroma_qp_offset=-2 / threads=12 / lookahead_threads=1 / sliced_threads=0 / nr=0 / decimate=1 / interlaced=0 / bluray_compat=0 / stitchable=1 / constrained_intra=0 / bframes=3 / b_pyramid=2 / b_adapt=1 / b_bias=0 / direct=3 / weightb=1 / open_gop=0 / weightp=2 / keyint=30 / keyint_min=3 / scenecut=0 / intra_refresh=0 / rc_lookahead=40 / rc=abr / mbtree=1 / bitrate=3340 / ratetol=1.0 / qcomp=0.60 / qpmin=0 / qpmax=69 / qpstep=4 / vbv_maxrate=5010 / vbv_bufsize=7515 / nal_hrd=none / filler=0 / ip_ratio=1.40 / aq=1:1.00
    36. Default                        : Yes
    37. Forced                         : No

    38. Audio
    39. ID                             : 2
    40. Format                         : AAC
    41. Format/Info                    : Advanced Audio Codec
    42. Format profile                 : LC
    43. Codec ID                       : A_AAC-2
    44. Duration                       : 46 min 0 s
    45. Bit rate                       : 192 kb/s
    46. Channel(s)                     : 2 channels
    47. Channel positions              : Front: L R
    48. Sampling rate                  : 44.1 kHz
    49. Frame rate                     : 43.066 FPS (1024 SPF)
    50. Compression mode               : Lossy
    51. Stream size                    : 63.2 MiB (5%)
    52. Default                        : No
    53. Forced                         : No

    54. Text
    55. ID                             : 3
    56. Format                         : UTF-8
    57. Codec ID                       : S_TEXT/UTF8
    58. Codec ID/Info                  : UTF-8 Plain Text
    59. Duration                       : 43 min 54 s
    60. Bit rate                       : 53 b/s
    61. Count of elements              : 665
    62. Stream size                    : 17.2 KiB (0%)
    63. Language                       : Chinese
    64. Default                        : Yes
    65. Forced                         : No
    复制代码




    购买主题 已有 2 人购买  本主题需向作者支付 20 大洋 才能浏览
    郑重声明:
    本人提供的所有影视作品均是在网上搜集,任何涉及商业盈利目的均不得使用,否则产生的一切后果将由您自己承担!
    本人不对本人所发布的任何内容负任何法律责任!该下载内容仅做宽带测试使用,请在下载后24小时内删除。请购买正版!
    本人列出的文件没有保存在本站的服务器上,本人仅负责连接,本人对被传播文件的内容一无所知。
    如侵犯视频原作者或发行商版权,请联系本人删除!
    回复

    使用道具 举报

  • TA的每日心情
    开心
    前天 07:03
  • 签到天数: 96 天

    [LV.6]常住居民II

    10

    主题

    1118

    帖子

    87

    积分

    中级影迷

    Rank: 3Rank: 3

    积分
    87
    发表于 2020-9-12 07:48:28 | 显示全部楼层
    感谢分享精彩电视剧支持一下
    回复

    使用道具 举报

  • TA的每日心情
    开心
    昨天 07:09
  • 签到天数: 87 天

    [LV.6]常住居民II

    1

    主题

    858

    帖子

    183

    积分

    高级影迷

    Rank: 4

    积分
    183
    发表于 2020-9-12 08:35:57 | 显示全部楼层
    楼主辛苦了,谢谢
    回复

    使用道具 举报

  • TA的每日心情
    开心
    前天 08:37
  • 签到天数: 34 天

    [LV.5]常住居民I

    0

    主题

    319

    帖子

    110

    积分

    中级影迷

    Rank: 3Rank: 3

    积分
    110
    发表于 2020-9-12 12:13:48 | 显示全部楼层
    谢谢分享。。。。
    回复

    使用道具 举报

  • TA的每日心情
    开心
    昨天 19:06
  • 签到天数: 149 天

    [LV.7]常住居民III

    2

    主题

    1546

    帖子

    372

    积分

    超级影迷

    Rank: 6Rank: 6

    积分
    372
    发表于 2020-9-12 19:34:23 | 显示全部楼层
    感谢分享。
    回复

    使用道具 举报

  • TA的每日心情
    郁闷
    昨天 16:20
  • 签到天数: 35 天

    [LV.5]常住居民I

    3

    主题

    384

    帖子

    99

    积分

    中级影迷

    Rank: 3Rank: 3

    积分
    99
    发表于 2020-9-12 20:31:53 | 显示全部楼层
    感谢分享精彩电视剧
    回复

    使用道具 举报

  • TA的每日心情
    开心
    昨天 13:21
  • 签到天数: 60 天

    [LV.6]常住居民II

    1

    主题

    647

    帖子

    114

    积分

    中级影迷

    Rank: 3Rank: 3

    积分
    114
    发表于 2020-9-12 21:18:41 | 显示全部楼层
    感谢分享!
    回复

    使用道具 举报

  • TA的每日心情
    擦汗
    5 小时前
  • 签到天数: 102 天

    [LV.6]常住居民II

    2

    主题

    1093

    帖子

    223

    积分

    高级影迷

    Rank: 4

    积分
    223
    发表于 2020-9-13 00:09:12 | 显示全部楼层
    谢谢分享哇
    回复

    使用道具 举报

  • TA的每日心情
    奋斗
    昨天 14:58
  • 签到天数: 65 天

    [LV.6]常住居民II

    4

    主题

    800

    帖子

    69

    积分

    初级影迷

    Rank: 2

    积分
    69
    发表于 2020-9-13 01:00:15 | 显示全部楼层
    谢谢分享呦
    回复

    使用道具 举报

  • TA的每日心情
    开心
    昨天 07:00
  • 签到天数: 104 天

    [LV.6]常住居民II

    0

    主题

    251

    帖子

    15

    积分

    入门影迷

    Rank: 1

    积分
    15
    发表于 2020-9-14 07:09:31 | 显示全部楼层

    谢谢分享  
    回复

    使用道具 举报

    您需要登录后才可以回帖 登录 | 立即注册

    本版积分规则

    QQ|Archiver|手机版|小黑屋|影迷乐园

    GMT+8, 2020-9-30 05:26 , Processed in 0.099366 second(s), 28 queries .

    Powered by Discuz! X3.4

    Copyright © 2001-2020, Tencent Cloud.

    快速回复 返回顶部 返回列表