请选择 进入手机版 | 继续访问电脑版

YMLY-影迷乐园-特效字幕 蓝光原盘 1080P 高清动漫电影电视剧

 找回密码
 立即注册
搜索
查看: 209|回复: 6

[韩国] [115+百度][2009][1080P][穿透屋顶的High Kick.搞笑一家人2][台配国语.韩语.繁中字幕][30集全][TS][145.14GB][八大娱乐台HD][Jibong.Ddulgo.Haikick.2009.HDTV.MPEG2.1080i-52KHD]

[复制链接]
  • TA的每日心情
    奋斗
    2020-2-21 00:36
  • 签到天数: 656 天

    [LV.9]以坛为家II

    7499

    主题

    9379

    帖子

    5万

    积分

    超级版主

    与齐同行,是最初的梦想,也是一辈子的执着~

    Rank: 16Rank: 16Rank: 16Rank: 16

    积分
    55453

    内测勋章最佳新人十二生肖之猴VIP包月勋章影迷男神小土豪勋章土豪勋章富甲一方精华勋章金话筒主题达人灌水之王

    发表于 2020-9-13 11:28:51 | 显示全部楼层 |阅读模式
    下载说明:

    百度网盘分享极其不稳定,如有链接失效,请第一时间站内短消息通知我,上线后会第一时间补发!请大家多多谅解!电驴链接只能115会员离线下载,其它工具都下载不了!


    ----转载自52KHD论坛,感谢压制和原发布人员,特此鸣谢!----



    ◎译  名 穿透屋顶的High Kick/搞笑一家人2
    ◎片  名 지붕 뚫고 하이킥
    ◎年  代 2009
    ◎产  地 韩国
    ◎类  别 剧情 / 喜剧 / 家庭
    ◎语  言 韩语
    ◎上映日期 2009-09-07(韩国)
    ◎豆瓣评分 8.7/10 from 12934 users
    ◎豆瓣链接 https://movie.douban.com/subject/4022104/
    ◎集  数 126
    ◎片  长 25分钟
    ◎导  演 金秉旭 Byung-wook Kim / 金昌东 Chang-dong Kim / 金英基 Young-Ki Kim
    ◎主  演 李顺载 Soon-jae Lee
           金慈玉 Ja-ok Kim
           黄正音 Jeong-eum Hwang
           崔丹尼尔 Daniel Choi
           申世京 Se-Kyung Shin
           尹施允 Shi-Yoon Yoon
           郑普硕 Bo-seok Jeong
           吴贤庆 Hyun Kyung Oh
           刘仁娜 In-na Yoo
           李起光 Gi-Kwang Lee
           李光洙 Kwang-soo Lee
           陈智熙 Ji-hee Jin
           徐信爱 Shin-ae Seo
           朱利安·姜 Julien Kang
           申秀妍 Soo-yun Shin
           金景龙 Geong-ryong Kim
           张恒准 Hang-jun Zhang
           林在建 Jae-geun Im
           崔恩静 Eun-kyung Choi
           许嘉允 Ga-yoon Heo
           朴智妍 Ji-Yeon  Park
           宋秀贤 Soo-hyun Song
           柳淳哲 Sun-cheol Yu
           金彗星 Hye-sung Kim
           金汎 Beom Kim
           郭正旭 Jung-Wook Kwak
           郑锡元 Kwon Jeong Seo

    ◎标  签 韩剧 | 穿透屋顶的high | 搞笑 | 家庭喜剧 | 韩国 | 情景喜剧 | 喜剧 | 看过的电视剧

    ◎简  介

      据《无法阻挡的highkick》制作公司负责人透露,因为是续集,因此新剧原本是计划叫《无法阻挡的highkick2》,不过后来考虑到新剧中有不少新的演员加入,最后将剧名定位了更有气势的《穿透屋顶的highkick》。
      
      《穿透屋顶的highkick》将在9月7日首播,而在8月10日,该剧剧组将进行海报拍摄,并以此为开始进行6个月的大长征。
      
      《穿透屋顶的highkick》讲述了刚刚从地方来到首尔的两姐妹,入住到《无法阻挡的highkick》一家人的家庭后所发生的各种有趣的故事,该剧将由李顺才等《无法阻挡的highkick》原班人马与全新加入的演员们一起出演。
    1. General
    2. ID                             : 6 (0x6)
    3. Format                         : MPEG-TS
    4. File size                      : 4.87 GiB
    5. Duration                       : 2 h 0 min
    6. Overall bit rate mode          : Variable
    7. Overall bit rate               : 5 812 kb/s

    8. Video
    9. ID                             : 1066 (0x42A)
    10. Menu ID                        : 14 (0xE)
    11. Format                         : AVC
    12. Format/Info                    : Advanced Video Codec
    13. Format profile                 : Main@L4
    14. Format settings                : CABAC / 4 Ref Frames
    15. Format settings, CABAC         : Yes
    16. Format settings, Reference fra : 4 frames
    17. Codec ID                       : 27
    18. Duration                       : 1 h 59 min
    19. Bit rate                       : 5 266 kb/s
    20. Width                          : 1 920 pixels
    21. Height                         : 1 080 pixels
    22. Display aspect ratio           : 16:9
    23. Frame rate                     : 29.970 (30000/1001) FPS
    24. Standard                       : Component
    25. Color space                    : YUV
    26. Chroma subsampling             : 4:2:0
    27. Bit depth                      : 8 bits
    28. Scan type                      : Interlaced
    29. Scan type, store method        : Separated fields
    30. Scan order                     : Top Field First
    31. Bits/(Pixel*Frame)             : 0.085
    32. Stream size                    : 4.41 GiB (91%)
    33. Color range                    : Limited
    34. Color primaries                : BT.709
    35. Transfer characteristics       : BT.709
    36. Matrix coefficients            : BT.709

    37. Audio #1
    38. ID                             : 1067 (0x42B)
    39. Menu ID                        : 14 (0xE)
    40. Format                         : MPEG Audio
    41. Format version                 : Version 1
    42. Format profile                 : Layer 2
    43. Codec ID                       : 4
    44. Duration                       : 2 h 0 min
    45. Bit rate mode                  : Constant
    46. Bit rate                       : 128 kb/s
    47. Channel(s)                     : 2 channels
    48. Sampling rate                  : 48.0 kHz
    49. Frame rate                     : 41.667 FPS (1152 SPF)
    50. Compression mode               : Lossy
    51. Delay relative to video        : -441 ms
    52. Stream size                    : 110 MiB (2%)

    53. Audio #2
    54. ID                             : 1068 (0x42C)
    55. Menu ID                        : 14 (0xE)
    56. Format                         : MPEG Audio
    57. Format version                 : Version 1
    58. Format profile                 : Layer 2
    59. Codec ID                       : 4
    60. Duration                       : 1 h 59 min
    61. Bit rate mode                  : Constant
    62. Bit rate                       : 128 kb/s
    63. Channel(s)                     : 2 channels
    64. Sampling rate                  : 48.0 kHz
    65. Frame rate                     : 41.667 FPS (1152 SPF)
    66. Compression mode               : Lossy
    67. Delay relative to video        : -340 ms
    68. Stream size                    : 110 MiB (2%)

    69. Menu
    70. ID                             : 214 (0xD6)
    71. Menu ID                        : 14 (0xE)
    72. Duration                       : 2 h 0 min
    73. List                           : 1066 (0x42A) (AVC) / 1067 (0x42B) (MPEG Audio) / 1068 (0x42C) (MPEG Audio)
    复制代码




    购买主题 已有 1 人购买  本主题需向作者支付 100 大洋 才能浏览
    郑重声明:
    本人提供的所有影视作品均是在网上搜集,任何涉及商业盈利目的均不得使用,否则产生的一切后果将由您自己承担!
    本人不对本人所发布的任何内容负任何法律责任!该下载内容仅做宽带测试使用,请在下载后24小时内删除。请购买正版!
    本人列出的文件没有保存在本站的服务器上,本人仅负责连接,本人对被传播文件的内容一无所知。
    如侵犯视频原作者或发行商版权,请联系本人删除!
    回复

    使用道具 举报

  • TA的每日心情
    开心
    前天 08:37
  • 签到天数: 34 天

    [LV.5]常住居民I

    0

    主题

    319

    帖子

    110

    积分

    中级影迷

    Rank: 3Rank: 3

    积分
    110
    发表于 2020-9-13 11:52:21 | 显示全部楼层
    谢谢分享。。。。。
    回复

    使用道具 举报

  • TA的每日心情
    开心
    前天 07:03
  • 签到天数: 96 天

    [LV.6]常住居民II

    10

    主题

    1118

    帖子

    87

    积分

    中级影迷

    Rank: 3Rank: 3

    积分
    87
    发表于 2020-9-13 13:04:11 | 显示全部楼层
    感谢分享,支持一下
    回复

    使用道具 举报

  • TA的每日心情
    擦汗
    5 小时前
  • 签到天数: 102 天

    [LV.6]常住居民II

    2

    主题

    1093

    帖子

    223

    积分

    高级影迷

    Rank: 4

    积分
    223
    发表于 2020-9-14 00:08:12 | 显示全部楼层
    谢谢分享啦
    回复

    使用道具 举报

  • TA的每日心情
    擦汗
    5 小时前
  • 签到天数: 102 天

    [LV.6]常住居民II

    2

    主题

    1093

    帖子

    223

    积分

    高级影迷

    Rank: 4

    积分
    223
    发表于 2020-9-14 00:08:38 | 显示全部楼层
    谢谢分享啦
    回复

    使用道具 举报

  • TA的每日心情
    奋斗
    5 小时前
  • 签到天数: 32 天

    [LV.5]常住居民I

    1

    主题

    338

    帖子

    26

    积分

    初级影迷

    Rank: 2

    积分
    26
    发表于 2020-9-15 00:25:10 | 显示全部楼层
    李顺载老爷子厉害
    回复

    使用道具 举报

  • TA的每日心情
    开心
    3 小时前
  • 签到天数: 7 天

    [LV.3]偶尔看看II

    0

    主题

    105

    帖子

    22

    积分

    入门影迷

    Rank: 1

    积分
    22
    发表于 4 天前 | 显示全部楼层
    谢谢分享啦
    回复

    使用道具 举报

    您需要登录后才可以回帖 登录 | 立即注册

    本版积分规则

    QQ|Archiver|手机版|小黑屋|影迷乐园

    GMT+8, 2020-9-30 05:25 , Processed in 0.097040 second(s), 28 queries .

    Powered by Discuz! X3.4

    Copyright © 2001-2020, Tencent Cloud.

    快速回复 返回顶部 返回列表