请选择 进入手机版 | 继续访问电脑版

YMLY-影迷乐园-特效字幕 蓝光原盘 1080P 高清动漫电影电视剧

 找回密码
 立即注册
搜索
查看: 219|回复: 10

[西班牙] [百度][2020][1080P][世纪大劫案][西班牙语.简繁官中][6集全][MKV][8.51GB][The.Great.Heist.S01.SPANISH.1080p.NF.WEBRip.DDP5.1.x264-TEPES]

[复制链接]
  • TA的每日心情
    擦汗
    5 小时前
  • 签到天数: 195 天

    [LV.7]常住居民III

    224

    主题

    775

    帖子

    2469

    积分

    超级版主

    Rank: 16Rank: 16Rank: 16Rank: 16

    积分
    2469

    超版勋章版主勋章土豪勋章小土豪勋章最佳新人十二生肖之猴双鱼座勋章百分百好孩子精华勋章

    发表于 2020-9-13 19:16:08 | 显示全部楼层 |阅读模式
    下载说明:

    百度网盘分享极其不稳定,如有链接失效,请第一时间站内短消息通知我,上线后会第一时间补发!



    ◎译  名 世纪大劫案/The Great Heist
    ◎片  名 El robo del siglo
    ◎年  代 2020
    ◎产  地 哥伦比亚
    ◎类  别 剧情/惊悚/犯罪
    ◎语  言 西班牙语
    ◎上映日期 2020-08-13(哥伦比亚)
    ◎IMDb链接  https://www.imdb.com/title/tt12624844/
    ◎豆瓣评分 /10 from 0 users
    ◎豆瓣链接 https://douban.com/subject/35155105/
    ◎集  数 6
    ◎主  演 安德烈斯·帕拉 Andrés Parra
           克里斯蒂安·塔潘 Christian Tappan

    ◎标  签 犯罪 | 欧美剧 | 剧情 | Netflix原创剧集 | 悬疑 | netflix未看

    ◎简  介

      
       本剧讲述了在1994年10月哥伦比亚中央银行的抢劫案中,当时有一个小偷将240亿现钞比索(约合3300万美元)偷走。
      
    1. General
    2. Unique ID                      : 12884937284240424672574297650092931023 (0x9B18C74A2DD56DF2E42BC0034A177CF)
    3. Complete name                  : The.Great.Heist.S01E02.The.Crew.1080p.NF.WEB-DL.DDP5.1.x264-TEPES.mkv
    4. Format                         : Matroska
    5. Format version                 : Version 4
    6. File size                      : 1.14 GiB
    7. Duration                       : 39 min 43 s
    8. Overall bit rate mode          : Variable
    9. Overall bit rate               : 4 118 kb/s
    10. Encoded date                   : UTC 2020-08-14 07:27:24
    11. Writing application            : mkvmerge v47.0.0 ('Black Flag') 64-bit
    12. Writing library                : libebml v1.3.10 + libmatroska v1.5.2

    13. Video
    14. ID                             : 1
    15. Format                         : AVC
    16. Format/Info                    : Advanced Video Codec
    17. Format profile                 : Main@L4
    18. Format settings                : CABAC / 3 Ref Frames
    19. Format settings, CABAC         : Yes
    20. Format settings, Reference fra : 3 frames
    21. Codec ID                       : V_MPEG4/ISO/AVC
    22. Duration                       : 39 min 43 s
    23. Bit rate mode                  : Variable
    24. Bit rate                       : 3 473 kb/s
    25. Nominal bit rate               : 3 650 kb/s
    26. Maximum bit rate               : 5 475 kb/s
    27. Width                          : 1 920 pixels
    28. Height                         : 1 080 pixels
    29. Display aspect ratio           : 16:9
    30. Frame rate mode                : Constant
    31. Frame rate                     : 24.000 FPS
    32. Color space                    : YUV
    33. Chroma subsampling             : 4:2:0
    34. Bit depth                      : 8 bits
    35. Scan type                      : Progressive
    36. Bits/(Pixel*Frame)             : 0.070
    37. Stream size                    : 987 MiB (84%)
    38. Writing library                : x264 core 148 r2722 1b0121b
    39. Encoding settings              : cabac=1 / ref=3 / deblock=1:0:0 / analyse=0x1:0x111 / me=umh / subme=10 / psy=1 / psy_rd=1.00:0.00 / mixed_ref=1 / me_range=24 / chroma_me=1 / trellis=2 / 8x8dct=0 / cqm=0 / deadzone=21,11 / fast_pskip=1 / chroma_qp_offset=-2 / threads=6 / lookahead_threads=1 / sliced_threads=0 / nr=0 / decimate=1 / interlaced=0 / bluray_compat=0 / stitchable=1 / constrained_intra=0 / bframes=2 / b_pyramid=0 / b_adapt=2 / b_bias=0 / direct=3 / weightb=1 / open_gop=0 / weightp=2 / keyint=250 / keyint_min=24 / scenecut=0 / intra_refresh=0 / rc_lookahead=48 / rc=2pass / mbtree=1 / bitrate=3650 / ratetol=1.0 / qcomp=0.50 / qpmin=6 / qpmax=51 / qpstep=4 / cplxblur=20.0 / qblur=0.5 / vbv_maxrate=5475 / vbv_bufsize=7300 / nal_hrd=vbr / filler=0 / ip_ratio=1.40 / aq=1:1.00
    40. Default                        : Yes
    41. Forced                         : No

    42. Audio
    43. ID                             : 2
    44. Format                         : E-AC-3
    45. Format/Info                    : Enhanced AC-3
    46. Commercial name                : Dolby Digital Plus
    47. Codec ID                       : A_EAC3
    48. Duration                       : 39 min 43 s
    49. Bit rate mode                  : Constant
    50. Bit rate                       : 640 kb/s
    51. Channel(s)                     : 6 channels
    52. Channel layout                 : L R C LFE Ls Rs
    53. Sampling rate                  : 48.0 kHz
    54. Frame rate                     : 31.250 FPS (1536 SPF)
    55. Compression mode               : Lossy
    56. Stream size                    : 182 MiB (16%)
    57. Title                          : Latin American
    58. Language                       : Spanish
    59. Service kind                   : Complete Main
    60. Default                        : Yes
    61. Forced                         : No

    62. Text #28
    63. ID                             : 30
    64. Format                         : UTF-8
    65. Codec ID                       : S_TEXT/UTF8
    66. Codec ID/Info                  : UTF-8 Plain Text
    67. Duration                       : 36 min 37 s
    68. Bit rate                       : 73 b/s
    69. Count of elements              : 587
    70. Stream size                    : 19.7 KiB (0%)
    71. Title                          : Simplified
    72. Language                       : Chinese
    73. Default                        : No
    74. Forced                         : No

    75. Text #29
    76. ID                             : 31
    77. Format                         : UTF-8
    78. Codec ID                       : S_TEXT/UTF8
    79. Codec ID/Info                  : UTF-8 Plain Text
    80. Duration                       : 36 min 37 s
    81. Bit rate                       : 73 b/s
    82. Count of elements              : 586
    83. Stream size                    : 19.6 KiB (0%)
    84. Title                          : Traditional
    85. Language                       : Chinese
    86. Default                        : No
    87. Forced                         : No
    复制代码













    购买主题 已有 5 人购买  本主题需向作者支付 12 大洋 才能浏览
    回复

    使用道具 举报

  • TA的每日心情
    擦汗
    5 小时前
  • 签到天数: 102 天

    [LV.6]常住居民II

    2

    主题

    1093

    帖子

    223

    积分

    高级影迷

    Rank: 4

    积分
    223
    发表于 2020-9-14 00:06:33 | 显示全部楼层
    谢谢分享呀
    回复

    使用道具 举报

  • TA的每日心情
    开心
    4 天前
  • 签到天数: 76 天

    [LV.6]常住居民II

    3

    主题

    760

    帖子

    220

    积分

    高级影迷

    Rank: 4

    积分
    220
    发表于 2020-9-14 09:30:45 | 显示全部楼层
    感谢大佬分享好剧
    回复

    使用道具 举报

  • TA的每日心情
    开心
    昨天 08:32
  • 签到天数: 73 天

    [LV.6]常住居民II

    2

    主题

    185

    帖子

    13

    积分

    入门影迷

    Rank: 1

    积分
    13
    发表于 2020-9-14 10:33:45 | 显示全部楼层
    666666666666666666666666666
    回复

    使用道具 举报

  • TA的每日心情
    慵懒
    昨天 12:43
  • 签到天数: 77 天

    [LV.6]常住居民II

    29

    主题

    1328

    帖子

    104

    积分

    中级影迷

    Rank: 3Rank: 3

    积分
    104
    发表于 2020-9-14 12:19:50 | 显示全部楼层
    来了来了,谢谢分享!
    回复

    使用道具 举报

  • TA的每日心情
    郁闷
    2020-7-26 13:16
  • 签到天数: 13 天

    [LV.3]偶尔看看II

    1

    主题

    301

    帖子

    92

    积分

    中级影迷

    Rank: 3Rank: 3

    积分
    92
    发表于 2020-9-14 18:26:58 | 显示全部楼层
    感谢楼主分享
    回复

    使用道具 举报

  • TA的每日心情
    奋斗
    5 小时前
  • 签到天数: 32 天

    [LV.5]常住居民I

    1

    主题

    338

    帖子

    26

    积分

    初级影迷

    Rank: 2

    积分
    26
    发表于 2020-9-15 00:23:13 | 显示全部楼层
    好像很厉害的样子
    回复

    使用道具 举报

  • TA的每日心情

    2019-10-24 00:15
  • 签到天数: 5 天

    [LV.2]偶尔看看I

    0

    主题

    806

    帖子

    43

    积分

    初级影迷

    Rank: 2

    积分
    43
    发表于 2020-9-16 03:16:18 | 显示全部楼层
    感谢分享。   
    回复

    使用道具 举报

    该用户从未签到

    0

    主题

    3

    帖子

    22

    积分

    入门影迷

    Rank: 1

    积分
    22
    发表于 2020-9-21 23:03:02 | 显示全部楼层
    好片支持啦
    回复

    使用道具 举报

  • TA的每日心情
    开心
    4 天前
  • 签到天数: 8 天

    [LV.3]偶尔看看II

    0

    主题

    26

    帖子

    2

    积分

    入门影迷

    Rank: 1

    积分
    2
    发表于 7 天前 | 显示全部楼层
    谢谢分享呀
    回复

    使用道具 举报

    您需要登录后才可以回帖 登录 | 立即注册

    本版积分规则

    QQ|Archiver|手机版|小黑屋|影迷乐园

    GMT+8, 2020-9-30 05:37 , Processed in 0.108131 second(s), 28 queries .

    Powered by Discuz! X3.4

    Copyright © 2001-2020, Tencent Cloud.

    快速回复 返回顶部 返回列表