请选择 进入手机版 | 继续访问电脑版

YMLY-影迷乐园-特效字幕 蓝光原盘 1080P 高清动漫电影电视剧

 找回密码
 立即注册
搜索
查看: 124|回复: 6

[日本] [115][2019][1080P][G弦上的你和我][日语.繁中字幕][波瑠.中川大志][10集全][MKV][10.89GB][You.and.I.on.the.G-String.S01.1080p.KKTV.WEB-DL.AAC2.0.H264-Ao]

[复制链接]
  • TA的每日心情
    奋斗
    2020-2-21 00:36
  • 签到天数: 656 天

    [LV.9]以坛为家II

    7499

    主题

    9379

    帖子

    5万

    积分

    超级版主

    与齐同行,是最初的梦想,也是一辈子的执着~

    Rank: 16Rank: 16Rank: 16Rank: 16

    积分
    55453

    内测勋章最佳新人十二生肖之猴VIP包月勋章影迷男神小土豪勋章土豪勋章富甲一方精华勋章金话筒主题达人灌水之王

    发表于 2020-9-15 02:06:45 | 显示全部楼层 |阅读模式
    下载说明:

    近期百度云和谐的厉害,本剧将采用115网盘的方式分享,只能115网盘会员接收并下载,购买前请看清楚!


    ----转载自OurBits,感谢压制和原发布人员,特此鸣谢!----



    ◎译  名 G弦上的你和我
    ◎片  名 G線上のあなたと私
    ◎年  代 2019
    ◎产  地 日本
    ◎类  别 剧情 / 爱情
    ◎语  言 日语
    ◎上映日期 2019-10-15(日本)
    ◎IMDb链接  https://www.imdb.com/title/tt11980272
    ◎豆瓣评分 7.6/10 from 2075 users
    ◎豆瓣链接 https://movie.douban.com/subject/34460970/
    ◎集  数 10
    ◎片  长 45分钟
    ◎导  演 金子文纪 Fuminori Kaneko / 竹村谦太郎 Kentaro Takemura / 福田亮介 Ryôsuke Fukuda
    ◎编  剧 安达奈绪子 Naoko Adachi
    ◎主  演 波瑠 Haru
           中川大志 Taishi Nakagawa
           松下由树 Yuki Matsushita
           樱井由纪 Yuki Sakurai
           铃木伸之 Nobuyuki Suzuki


    ◎标  签 日剧 | 波瑠 | 日本 | 音乐 | 中川大志 | 2019 | 19秋 | 漫画改编

    ◎简  介  

      为了准备结婚而辞去工作的也映子,居然被未婚夫以「有其他喜欢的人了」为由狠狠甩掉。原本万念俱灰的她偶然听见「G弦上的咏叹调」而获得心灵上的救赎,在无业的状态下投入时间跟金钱开始学习小提琴,为的就是希望有天能亲手拉出「G弦」这首曲子来。和她同在一间教室的,还有有婆媳问题的中年家庭主妇,以及曾经差点成为小提琴老师小舅子的大学生……
    1. General
    2. Unique ID                      : 264629685879660918512437696480928658775 (0xC715D2D8D2753780F6B7871F66F0F557)
    3. Format version                 : Version 4 / Version 2
    4. File size                      : 1.06 GiB
    5. Duration                       : 47 min 15 s
    6. Overall bit rate               : 3 202 kb/s
    7. Encoded date                   : UTC 2020-01-05 15:01:06
    8. Writing application            : mkvmerge v31.0.0 ('Dolores In A Shoestand') 64-bit
    9. Writing library                : libebml v1.3.6 + libmatroska v1.4.9

    10. Video
    11. ID                             : 1
    12. Format                         : AVC
    13. Format/Info                    : Advanced Video Codec
    14. Format profile                 : High@L4.1
    15. Format settings                : CABAC / 5 Ref Frames
    16. Format settings, CABAC         : Yes
    17. Format settings, ReFrames      : 5 frames
    18. Codec ID                       : V_MPEG4/ISO/AVC
    19. Duration                       : 47 min 14 s
    20. Bit rate                       : 3 000 kb/s
    21. Width                          : 1 920 pixels
    22. Height                         : 1 080 pixels
    23. Display aspect ratio           : 16:9
    24. Frame rate mode                : Constant
    25. Frame rate                     : 29.970 (30000/1001) FPS
    26. Color space                    : YUV
    27. Chroma subsampling             : 4:2:0
    28. Bit depth                      : 8 bits
    29. Scan type                      : Progressive
    30. Bits/(Pixel*Frame)             : 0.048
    31. Stream size                    : 1 016 MiB (94%)
    32. Writing library                : x264 core 142
    33. Encoding settings              : cabac=1 / ref=5 / deblock=1:0:0 / analyse=0x3:0x113 / me=umh / subme=9 / psy=1 / psy_rd=1.00:0.00 / mixed_ref=1 / me_range=32 / chroma_me=1 / trellis=1 / 8x8dct=1 / cqm=0 / deadzone=21,11 / fast_pskip=1 / chroma_qp_offset=-2 / threads=12 / lookahead_threads=1 / sliced_threads=0 / nr=0 / decimate=1 / interlaced=0 / bluray_compat=0 / stitchable=1 / constrained_intra=0 / bframes=3 / b_pyramid=2 / b_adapt=1 / b_bias=0 / direct=3 / weightb=1 / open_gop=0 / weightp=2 / keyint=30 / keyint_min=3 / scenecut=0 / intra_refresh=0 / rc_lookahead=40 / rc=abr / mbtree=1 / bitrate=3000 / ratetol=1.0 / qcomp=0.60 / qpmin=0 / qpmax=69 / qpstep=4 / vbv_maxrate=4500 / vbv_bufsize=6750 / nal_hrd=none / filler=0 / ip_ratio=1.40 / aq=1:1.00
    34. Language                       : English
    35. Default                        : Yes
    36. Forced                         : No

    37. Audio
    38. ID                             : 2
    39. Format                         : AAC
    40. Format/Info                    : Advanced Audio Codec
    41. Format profile                 : LC
    42. Codec ID                       : A_AAC-2
    43. Duration                       : 47 min 15 s
    44. Bit rate                       : 192 kb/s
    45. Channel(s)                     : 2 channels
    46. Channel positions              : Front: L R
    47. Sampling rate                  : 44.1 kHz
    48. Frame rate                     : 43.066 FPS (1024 SPF)
    49. Compression mode               : Lossy
    50. Stream size                    : 64.9 MiB (6%)
    51. Language                       : English
    52. Default                        : No
    53. Forced                         : No

    54. Text
    55. ID                             : 3
    56. Format                         : UTF-8
    57. Codec ID                       : S_TEXT/UTF8
    58. Codec ID/Info                  : UTF-8 Plain Text
    59. Duration                       : 47 min 2 s
    60. Bit rate                       : 47 b/s
    61. Count of elements              : 640
    62. Stream size                    : 16.2 KiB (0%)
    63. Language                       : Chinese
    64. Default                        : Yes
    65. Forced                         : No
    复制代码




    购买主题 已有 1 人购买  本主题需向作者支付 20 大洋 才能浏览

    相关帖子

    郑重声明:
    本人提供的所有影视作品均是在网上搜集,任何涉及商业盈利目的均不得使用,否则产生的一切后果将由您自己承担!
    本人不对本人所发布的任何内容负任何法律责任!该下载内容仅做宽带测试使用,请在下载后24小时内删除。请购买正版!
    本人列出的文件没有保存在本站的服务器上,本人仅负责连接,本人对被传播文件的内容一无所知。
    如侵犯视频原作者或发行商版权,请联系本人删除!
    回复

    使用道具 举报

  • TA的每日心情
    奋斗
    昨天 13:04
  • 签到天数: 144 天

    [LV.7]常住居民III

    5

    主题

    532

    帖子

    37

    积分

    初级影迷

    Rank: 2

    积分
    37
    发表于 2020-9-15 06:35:38 | 显示全部楼层
    感谢分享····
    回复

    使用道具 举报

  • TA的每日心情
    开心
    昨天 13:21
  • 签到天数: 60 天

    [LV.6]常住居民II

    1

    主题

    647

    帖子

    114

    积分

    中级影迷

    Rank: 3Rank: 3

    积分
    114
    发表于 2020-9-15 07:50:27 | 显示全部楼层
    感谢分享!
    回复

    使用道具 举报

  • TA的每日心情
    开心
    4 天前
  • 签到天数: 76 天

    [LV.6]常住居民II

    3

    主题

    760

    帖子

    220

    积分

    高级影迷

    Rank: 4

    积分
    220
    发表于 2020-9-15 09:34:23 | 显示全部楼层
    感谢大佬分享好剧
    回复

    使用道具 举报

  • TA的每日心情
    奋斗
    昨天 14:58
  • 签到天数: 65 天

    [LV.6]常住居民II

    4

    主题

    800

    帖子

    69

    积分

    初级影迷

    Rank: 2

    积分
    69
    发表于 2020-9-15 10:37:46 | 显示全部楼层
    感谢分享。
    回复

    使用道具 举报

  • TA的每日心情
    开心
    昨天 19:06
  • 签到天数: 149 天

    [LV.7]常住居民III

    2

    主题

    1546

    帖子

    372

    积分

    超级影迷

    Rank: 6Rank: 6

    积分
    372
    发表于 2020-9-15 20:35:32 | 显示全部楼层
    感谢分享。
    回复

    使用道具 举报

  • TA的每日心情
    开心
    昨天 07:00
  • 签到天数: 104 天

    [LV.6]常住居民II

    0

    主题

    251

    帖子

    15

    积分

    入门影迷

    Rank: 1

    积分
    15
    发表于 2020-9-19 13:37:50 | 显示全部楼层

    感谢分享。
    回复

    使用道具 举报

    您需要登录后才可以回帖 登录 | 立即注册

    本版积分规则

    QQ|Archiver|手机版|小黑屋|影迷乐园

    GMT+8, 2020-9-30 03:07 , Processed in 0.089068 second(s), 32 queries .

    Powered by Discuz! X3.4

    Copyright © 2001-2020, Tencent Cloud.

    快速回复 返回顶部 返回列表