请选择 进入手机版 | 继续访问电脑版

YMLY-影迷乐园-特效字幕 蓝光原盘 1080P 高清动漫电影电视剧

 找回密码
 立即注册
搜索
查看: 129|回复: 7

[香港] [115][2010][1080P][公主嫁到][粤语.繁中字幕][佘诗曼.陈豪][32集全][MKV][50.86GB][Can't.Buy.Me.Love.S01.1080p.KKTV.WEB-DL.AAC2.0.H264-Ao]

[复制链接]
  • TA的每日心情
    奋斗
    2020-2-21 00:36
  • 签到天数: 656 天

    [LV.9]以坛为家II

    7499

    主题

    9379

    帖子

    5万

    积分

    超级版主

    与齐同行,是最初的梦想,也是一辈子的执着~

    Rank: 16Rank: 16Rank: 16Rank: 16

    积分
    55453

    内测勋章最佳新人十二生肖之猴VIP包月勋章影迷男神小土豪勋章土豪勋章富甲一方精华勋章金话筒主题达人灌水之王

    发表于 2020-9-15 02:23:01 | 显示全部楼层 |阅读模式
    下载说明:

    近期百度云和谐的厉害,本剧将采用115网盘的方式分享,只能115网盘会员接收并下载,购买前请看清楚!


    ----转载自OurBits,感谢压制和原发布人员,特此鸣谢!----



    ◎译  名 Can't Buy Me Love / 宫心计2公主出巡 / 宫心计2公主嫁到
    ◎片  名 公主嫁到
    ◎年  代 2010
    ◎产  地 中国香港
    ◎类  别 喜剧 / 爱情 / 古装
    ◎语  言 粤语
    ◎上映日期 2010-08-23(中国香港)
    ◎IMDb评分  6.8/10 from 30 users
    ◎IMDb链接  https://www.imdb.com/title/tt4205214
    ◎豆瓣评分 7.0/10 from 26098 users
    ◎豆瓣链接 https://movie.douban.com/subject/4189694/
    ◎集  数 32
    ◎片  长 45分钟
    ◎编  剧 梁敏华 Man-Wa Leung  / 陈静仪 Ching-yee Chan
    ◎主  演 佘诗曼 Charmaine Sheh
           陈豪 Moses Chan
           钟嘉欣 Linda Chung Ka-Yan
           陈法拉 Fala Chen
           马国明 Kwok-Ming Ma
           黄浩然 Raymond Wong Ho-Yin
           关菊英 Kok-Ying Kwan
           李香琴 Heung Kam Lee
           阮兆祥 Louis Yuen
           陈珈颖 Kerry Chan
           梁证嘉 Kelvin Leung
           庄锭欣 Elkie Chong
           萧徽勇 Gordon Siu Fai Yung
           林秀怡 Kirby Lam
           黄耀煌 Terrence Wong
           钟洁岚 Kannie Chung
           高钧贤 Matthew Kwan Yin Ko
           王德基 Kedar Wong
           黎振烨 Chun Ye Lai
           张韦怡 Gogo Cheung
           杨鸿俊 Jacky Yeung
           李天翔 Eric Li Tin Cheung
           李施嬅 Selena Lee
           区霭玲 Edith Au
           杜港 Kong To
           邵卓尧 Cheuk-Yiu Siu
           王浩信 Vincent Wong
           陈自瑶 Yoyo Chen
           蒋志光 Chi-Kwong Cheung
           惠英红 Kara Wai Ying Hung
           郭锋 Fung Kwok
           姚子羚 Elaine Yiu
           谢雪心 Susan Tse
           萧正楠 Edwin Siu
           杨卓娜 Griselda Yeung
           关菁 Ching Kwan


    ◎标  签 佘诗曼 | 港剧 | 陈豪 | 公主嫁到 | 香港 | 电视剧 | 2010 | 喜剧

    ◎简  介  

      刁蛮任性的昭阳公主(佘诗曼 饰)为避嫁吐蕃急招驸马,一代金店掌舵人丁来喜(关菊英 饰)主动送上门,因二儿子金多禄(陈豪 饰)及三儿子金多寿(黄浩然 饰)均属单身,希望借此解决金店面临的财困危机。兄弟情深,多禄为救家业,主动答应亲事。谁料公主过门后尽显骄横跋扈本色,要求金家上下向她行君臣之礼,金家至高的精神领袖金太夫人(李香琴 饰)也难逃一劫,公主的心腹侍婢司徒银屏(陈法拉 饰)更不可一世,尊卑不分,连官媒丁有维(马国明 饰)也不放眼内;金家各人不甘受屈,合力反抗,但金家出名的大力丫环吴四德(钟嘉欣 饰)却倒戈相向,与公主站在同一阵线。公主斗驸马,三合三离,各施各法,最后更闹上皇宫,要由太宗亲自平息风波。娶得皇帝女,当然想夫凭妻贵;但娶著这位野蛮公主,又岂能百忍成金? 昭阳和多禄面对种种困难和冲击,能否有情人终成眷属?《公主嫁到》是为2010年香港TVB节目巡礼剧集之一。
    1. General
    2. Unique ID                      : 323474746478071026224882773456327201928 (0xF35AF8552A4E1F7B642F97067446D488)
    3. Format                         : Matroska
    4. Format version                 : Version 4 / Version 2
    5. File size                      : 1.58 GiB
    6. Duration                       : 43 min 31 s
    7. Overall bit rate               : 5 199 kb/s
    8. Encoded date                   : UTC 2019-09-02 07:09:04
    9. Writing application            : mkvmerge v31.0.0 ('Dolores In A Shoestand') 64-bit
    10. Writing library                : libebml v1.3.6 + libmatroska v1.4.9

    11. Video
    12. ID                             : 1
    13. Format                         : AVC
    14. Format/Info                    : Advanced Video Codec
    15. Format profile                 : High@L4.1
    16. Format settings                : CABAC / 5 Ref Frames
    17. Format settings, CABAC         : Yes
    18. Format settings, ReFrames      : 5 frames
    19. Codec ID                       : V_MPEG4/ISO/AVC
    20. Duration                       : 43 min 31 s
    21. Bit rate                       : 5 000 kb/s
    22. Width                          : 1 920 pixels
    23. Height                         : 1 080 pixels
    24. Display aspect ratio           : 16:9
    25. Frame rate mode                : Constant
    26. Frame rate                     : 29.970 (30000/1001) FPS
    27. Color space                    : YUV
    28. Chroma subsampling             : 4:2:0
    29. Bit depth                      : 8 bits
    30. Scan type                      : Progressive
    31. Bits/(Pixel*Frame)             : 0.080
    32. Stream size                    : 1.52 GiB (96%)
    33. Writing library                : x264 core 142
    34. Encoding settings              : cabac=1 / ref=5 / deblock=1:0:0 / analyse=0x3:0x113 / me=umh / subme=9 / psy=1 / psy_rd=1.00:0.00 / mixed_ref=1 / me_range=32 / chroma_me=1 / trellis=1 / 8x8dct=1 / cqm=0 / deadzone=21,11 / fast_pskip=1 / chroma_qp_offset=-2 / threads=6 / lookahead_threads=1 / sliced_threads=0 / nr=0 / decimate=1 / interlaced=0 / bluray_compat=0 / stitchable=1 / constrained_intra=0 / bframes=3 / b_pyramid=2 / b_adapt=1 / b_bias=0 / direct=3 / weightb=1 / open_gop=0 / weightp=2 / keyint=30 / keyint_min=3 / scenecut=0 / intra_refresh=0 / rc_lookahead=40 / rc=abr / mbtree=1 / bitrate=5000 / ratetol=1.0 / qcomp=0.60 / qpmin=0 / qpmax=69 / qpstep=4 / vbv_maxrate=7500 / vbv_bufsize=11250 / nal_hrd=none / filler=0 / ip_ratio=1.40 / aq=1:1.00
    35. Language                       : English
    36. Default                        : Yes
    37. Forced                         : No

    38. Audio
    39. ID                             : 2
    40. Format                         : AAC
    41. Format/Info                    : Advanced Audio Codec
    42. Format profile                 : LC
    43. Codec ID                       : A_AAC-2
    44. Duration                       : 43 min 31 s
    45. Bit rate                       : 192 kb/s
    46. Channel(s)                     : 2 channels
    47. Channel positions              : Front: L R
    48. Sampling rate                  : 44.1 kHz
    49. Frame rate                     : 43.066 FPS (1024 SPF)
    50. Compression mode               : Lossy
    51. Stream size                    : 59.8 MiB (4%)
    52. Language                       : English
    53. Default                        : No
    54. Forced                         : No

    55. Text
    56. ID                             : 3
    57. Format                         : UTF-8
    58. Codec ID                       : S_TEXT/UTF8
    59. Codec ID/Info                  : UTF-8 Plain Text
    60. Duration                       : 40 min 47 s
    61. Bit rate                       : 76 b/s
    62. Count of elements              : 799
    63. Stream size                    : 22.9 KiB (0%)
    64. Language                       : Chinese
    65. Default                        : Yes
    66. Forced                         : No
    复制代码




    购买主题 已有 2 人购买  本主题需向作者支付 20 大洋 才能浏览
    郑重声明:
    本人提供的所有影视作品均是在网上搜集,任何涉及商业盈利目的均不得使用,否则产生的一切后果将由您自己承担!
    本人不对本人所发布的任何内容负任何法律责任!该下载内容仅做宽带测试使用,请在下载后24小时内删除。请购买正版!
    本人列出的文件没有保存在本站的服务器上,本人仅负责连接,本人对被传播文件的内容一无所知。
    如侵犯视频原作者或发行商版权,请联系本人删除!
    回复

    使用道具 举报

  • TA的每日心情
    奋斗
    昨天 13:04
  • 签到天数: 144 天

    [LV.7]常住居民III

    5

    主题

    532

    帖子

    37

    积分

    初级影迷

    Rank: 2

    积分
    37
    发表于 2020-9-15 06:36:14 | 显示全部楼层
    感谢分享····
    回复

    使用道具 举报

  • TA的每日心情
    开心
    昨天 13:21
  • 签到天数: 60 天

    [LV.6]常住居民II

    1

    主题

    647

    帖子

    114

    积分

    中级影迷

    Rank: 3Rank: 3

    积分
    114
    发表于 2020-9-15 07:50:50 | 显示全部楼层
    感谢分享!
    回复

    使用道具 举报

  • TA的每日心情
    开心
    4 天前
  • 签到天数: 76 天

    [LV.6]常住居民II

    3

    主题

    760

    帖子

    220

    积分

    高级影迷

    Rank: 4

    积分
    220
    发表于 2020-9-15 09:33:50 | 显示全部楼层
    感谢大佬分享好剧
    回复

    使用道具 举报

  • TA的每日心情
    奋斗
    昨天 14:58
  • 签到天数: 65 天

    [LV.6]常住居民II

    4

    主题

    800

    帖子

    69

    积分

    初级影迷

    Rank: 2

    积分
    69
    发表于 2020-9-15 10:40:07 | 显示全部楼层
    感谢分享。
    回复

    使用道具 举报

  • TA的每日心情
    开心
    昨天 19:06
  • 签到天数: 149 天

    [LV.7]常住居民III

    2

    主题

    1546

    帖子

    372

    积分

    超级影迷

    Rank: 6Rank: 6

    积分
    372
    发表于 2020-9-15 20:35:15 | 显示全部楼层
    看看而已,
    回复

    使用道具 举报

  • TA的每日心情
    开心
    2019-11-1 09:48
  • 签到天数: 11 天

    [LV.3]偶尔看看II

    0

    主题

    127

    帖子

    27

    积分

    初级影迷

    Rank: 2

    积分
    27
    发表于 2020-9-17 10:34:46 | 显示全部楼层
    感谢分享····
    回复

    使用道具 举报

  • TA的每日心情
    开心
    昨天 07:00
  • 签到天数: 104 天

    [LV.6]常住居民II

    0

    主题

    251

    帖子

    15

    积分

    入门影迷

    Rank: 1

    积分
    15
    发表于 2020-9-19 13:33:38 | 显示全部楼层

    感谢分享。
    回复

    使用道具 举报

    您需要登录后才可以回帖 登录 | 立即注册

    本版积分规则

    QQ|Archiver|手机版|小黑屋|影迷乐园

    GMT+8, 2020-9-30 03:40 , Processed in 0.111927 second(s), 28 queries .

    Powered by Discuz! X3.4

    Copyright © 2001-2020, Tencent Cloud.

    快速回复 返回顶部 返回列表