请选择 进入手机版 | 继续访问电脑版

YMLY-影迷乐园-特效字幕 蓝光原盘 1080P 高清动漫电影电视剧

 找回密码
 立即注册
搜索
查看: 245|回复: 15

[日本] [115+百度][2012][1080P][富贵男贫困女.有钱男与贫穷女][日语.繁中字幕][小栗旬.石原里美][11集全][MKV][14.18GB][Rich.Man.Poor.Woman.S01.1080p.KKTV.WEB-DL.AAC2.0.H264-Ao]

[复制链接]
  • TA的每日心情
    奋斗
    2020-2-21 00:36
  • 签到天数: 656 天

    [LV.9]以坛为家II

    7499

    主题

    9379

    帖子

    5万

    积分

    超级版主

    与齐同行,是最初的梦想,也是一辈子的执着~

    Rank: 16Rank: 16Rank: 16Rank: 16

    积分
    55453

    内测勋章最佳新人十二生肖之猴VIP包月勋章影迷男神小土豪勋章土豪勋章富甲一方精华勋章金话筒主题达人灌水之王

    发表于 2020-9-15 02:42:17 | 显示全部楼层 |阅读模式
    下载说明:

    百度网盘分享极其不稳定,如有链接失效,请第一时间站内短消息通知我,上线后会第一时间补发!请大家多多谅解!电驴链接只能115会员离线下载,其它工具都下载不了!


    ----转载自OurBits,感谢压制和原发布人员,特此鸣谢!----



    ◎译  名 有钱男与贫穷女 / Rich Man, Poor Woman / 多金社长小资女(台) / 富贵男贫穷女
    ◎片  名 リッチマン、プアウーマン
    ◎年  代 2012
    ◎产  地 日本
    ◎类  别 剧情 / 喜剧 / 爱情
    ◎语  言 日语
    ◎上映日期 2012-07-09(日本)
    ◎IMDb评分  7.6/10 from 595 users
    ◎IMDb链接  https://www.imdb.com/title/tt2404115
    ◎豆瓣评分 8.2/10 from 69802 users
    ◎豆瓣链接 https://movie.douban.com/subject/10756863/
    ◎集  数 11
    ◎片  长 54分钟
    ◎导  演 西浦正记  Masaki Nishimura / 田中亮
    ◎编  剧 安达奈绪子 Naoko Adachi
    ◎主  演 小栗旬 Shun Oguri
           石原里美 Satomi Ishihara
           相武纱季 Saki Aibu
           井浦新 Arata
           浅利阳介 Asari Yousuke
           中村靖日 Yasuhi Nakamura
           八木希 Nozomi Yagi
           舞川亚郁 Aiku Maikawa
           野村麻纯 Masumi Nomura
           古川雄辉 Yûki Furukawa
           丸山智己 Tomomi Maruyama
           中原丈雄 Takeo Nakahara
           佐野史郎 Shirô Sano
           大地真央 Mao Daichi


    ◎标  签 日剧 | 小栗旬 | 石原里美 | 爱情 | 日本 | 2012 | 石原さとみ | 电视剧

    ◎简  介  

      数年前,同窗好友日向彻(小栗旬 饰)和朝比奈恒介(井浦新 饰)白手起家创立了IT企业Next Innovation。短短数年后,NI成为最受瞩目的新创公司,年仅29岁的日向也成为个人资产达250亿日元超级单身富豪。与只有初中文凭的日向形成鲜明对比的是,系出东大名门的大四女生夏井真琴(石原里美 饰)在就活战线上饱受创伤,身心疲惫不堪。奇妙的机缘将原本没有任何交集的两人联系在一起,性格存在缺陷的日向和谨慎过度的千寻彼此发生着碰撞,又相互吸引与感动。
      现代社会职场中的灰姑娘故事就此上演,而沉着冷静朝比奈和他开朗乐观的妹妹燿子(相武亚季 饰)则见证着这一悲喜交加的现代浪漫故事……

    ◎获奖情况  

      第74届日剧学院赏(2012)
      最优秀作品奖(提名)
      最佳男主角 小栗旬
      最佳男配角(提名) 井浦新
      最佳女配角 石原里美
      最佳电视歌曲(提名)
    1. General
    2. Unique ID                      : 187089949171465763577444343198704962368 (0x8CC036AA9417DCE2C393084D6D6F8B40)
    3. Format                         : Matroska
    4. Format version                 : Version 4 / Version 2
    5. File size                      : 1.18 GiB
    6. Duration                       : 46 min 8 s
    7. Overall bit rate               : 3 658 kb/s
    8. Encoded date                   : UTC 2019-07-10 04:48:03
    9. Writing application            : mkvmerge v31.0.0 ('Dolores In A Shoestand') 64-bit
    10. Writing library                : libebml v1.3.6 + libmatroska v1.4.9

    11. Video
    12. ID                             : 1
    13. Format                         : AVC
    14. Format/Info                    : Advanced Video Codec
    15. Format profile                 : High@L4.1
    16. Format settings                : CABAC / 5 Ref Frames
    17. Format settings, CABAC         : Yes
    18. Format settings, ReFrames      : 5 frames
    19. Codec ID                       : V_MPEG4/ISO/AVC
    20. Duration                       : 46 min 8 s
    21. Bit rate                       : 3 457 kb/s
    22. Width                          : 1 920 pixels
    23. Height                         : 1 080 pixels
    24. Display aspect ratio           : 16:9
    25. Frame rate mode                : Constant
    26. Frame rate                     : 29.970 (30000/1001) FPS
    27. Color space                    : YUV
    28. Chroma subsampling             : 4:2:0
    29. Bit depth                      : 8 bits
    30. Scan type                      : Progressive
    31. Bits/(Pixel*Frame)             : 0.056
    32. Stream size                    : 1.12 GiB (95%)
    33. Writing library                : x264 core 142
    34. Encoding settings              : cabac=1 / ref=5 / deblock=1:0:0 / analyse=0x3:0x113 / me=umh / subme=9 / psy=1 / psy_rd=1.00:0.00 / mixed_ref=1 / me_range=32 / chroma_me=1 / trellis=1 / 8x8dct=1 / cqm=0 / deadzone=21,11 / fast_pskip=1 / chroma_qp_offset=-2 / threads=6 / lookahead_threads=1 / sliced_threads=0 / nr=0 / decimate=1 / interlaced=0 / bluray_compat=0 / stitchable=1 / constrained_intra=0 / bframes=3 / b_pyramid=2 / b_adapt=1 / b_bias=0 / direct=3 / weightb=1 / open_gop=0 / weightp=2 / keyint=30 / keyint_min=3 / scenecut=0 / intra_refresh=0 / rc_lookahead=40 / rc=abr / mbtree=1 / bitrate=3457 / ratetol=1.0 / qcomp=0.60 / qpmin=0 / qpmax=69 / qpstep=4 / vbv_maxrate=5185 / vbv_bufsize=7777 / nal_hrd=none / filler=0 / ip_ratio=1.40 / aq=1:1.00
    35. Language                       : English
    36. Default                        : Yes
    37. Forced                         : No

    38. Audio
    39. ID                             : 2
    40. Format                         : AAC
    41. Format/Info                    : Advanced Audio Codec
    42. Format profile                 : LC
    43. Codec ID                       : A_AAC-2
    44. Duration                       : 46 min 8 s
    45. Bit rate                       : 192 kb/s
    46. Channel(s)                     : 2 channels
    47. Channel positions              : Front: L R
    48. Sampling rate                  : 44.1 kHz
    49. Frame rate                     : 43.066 FPS (1024 SPF)
    50. Compression mode               : Lossy
    51. Stream size                    : 63.4 MiB (5%)
    52. Language                       : English
    53. Default                        : No
    54. Forced                         : No

    55. Text #1
    56. ID                             : 3
    57. Format                         : UTF-8
    58. Codec ID                       : S_TEXT/UTF8
    59. Codec ID/Info                  : UTF-8 Plain Text
    60. Duration                       : 46 min 8 s
    61. Bit rate                       : 78 b/s
    62. Count of elements              : 540
    63. Stream size                    : 26.4 KiB (0%)
    64. Language                       : Japanese
    65. Default                        : No
    66. Forced                         : No

    67. Text #2
    68. ID                             : 4
    69. Format                         : UTF-8
    70. Codec ID                       : S_TEXT/UTF8
    71. Codec ID/Info                  : UTF-8 Plain Text
    72. Duration                       : 46 min 8 s
    73. Bit rate                       : 56 b/s
    74. Count of elements              : 659
    75. Stream size                    : 19.2 KiB (0%)
    76. Language                       : Chinese
    77. Default                        : Yes
    78. Forced                         : No
    复制代码








    购买主题 已有 6 人购买  本主题需向作者支付 30 大洋 才能浏览
    郑重声明:
    本人提供的所有影视作品均是在网上搜集,任何涉及商业盈利目的均不得使用,否则产生的一切后果将由您自己承担!
    本人不对本人所发布的任何内容负任何法律责任!该下载内容仅做宽带测试使用,请在下载后24小时内删除。请购买正版!
    本人列出的文件没有保存在本站的服务器上,本人仅负责连接,本人对被传播文件的内容一无所知。
    如侵犯视频原作者或发行商版权,请联系本人删除!
    回复

    使用道具 举报

  • TA的每日心情
    奋斗
    昨天 13:04
  • 签到天数: 144 天

    [LV.7]常住居民III

    5

    主题

    532

    帖子

    37

    积分

    初级影迷

    Rank: 2

    积分
    37
    发表于 2020-9-15 06:36:35 | 显示全部楼层
    感谢分享····
    回复

    使用道具 举报

  • TA的每日心情
    开心
    昨天 13:21
  • 签到天数: 60 天

    [LV.6]常住居民II

    1

    主题

    647

    帖子

    114

    积分

    中级影迷

    Rank: 3Rank: 3

    积分
    114
    发表于 2020-9-15 07:51:12 | 显示全部楼层
    感谢分享!
    回复

    使用道具 举报

  • TA的每日心情
    开心
    昨天 05:33
  • 签到天数: 162 天

    [LV.7]常住居民III

    0

    主题

    424

    帖子

    23

    积分

    入门影迷

    Rank: 1

    积分
    23
    发表于 2020-9-15 08:08:06 | 显示全部楼层
    十元最好看的造型还是非自然死亡里面的造型了
    回复

    使用道具 举报

  • TA的每日心情
    开心
    4 天前
  • 签到天数: 76 天

    [LV.6]常住居民II

    3

    主题

    760

    帖子

    220

    积分

    高级影迷

    Rank: 4

    积分
    220
    发表于 2020-9-15 09:33:27 | 显示全部楼层
    感谢大佬分享好剧
    回复

    使用道具 举报

  • TA的每日心情
    奋斗
    昨天 14:58
  • 签到天数: 65 天

    [LV.6]常住居民II

    4

    主题

    800

    帖子

    69

    积分

    初级影迷

    Rank: 2

    积分
    69
    发表于 2020-9-15 10:38:09 | 显示全部楼层
    感谢分享。
    回复

    使用道具 举报

  • TA的每日心情

    2020-6-2 22:37
  • 签到天数: 94 天

    [LV.6]常住居民II

    1

    主题

    752

    帖子

    74

    积分

    中级影迷

    Rank: 3Rank: 3

    积分
    74
    发表于 2020-9-15 11:10:56 | 显示全部楼层
    谢谢分享,男女主都美美哒
    回复

    使用道具 举报

  • TA的每日心情
    开心
    2 小时前
  • 签到天数: 36 天

    [LV.5]常住居民I

    0

    主题

    41

    帖子

    63

    积分

    初级影迷

    Rank: 2

    积分
    63
    发表于 2020-9-15 12:05:21 | 显示全部楼层
    感谢分享感谢分享
    回复

    使用道具 举报

  • TA的每日心情
    开心
    昨天 19:06
  • 签到天数: 149 天

    [LV.7]常住居民III

    2

    主题

    1546

    帖子

    372

    积分

    超级影迷

    Rank: 6Rank: 6

    积分
    372
    发表于 2020-9-15 21:00:37 | 显示全部楼层
    感谢分享。
    回复

    使用道具 举报

  • TA的每日心情
    无聊
    昨天 09:38
  • 签到天数: 99 天

    [LV.6]常住居民II

    0

    主题

    126

    帖子

    46

    积分

    初级影迷

    Rank: 2

    积分
    46
    发表于 2020-9-16 09:58:20 | 显示全部楼层
    感谢龙哥分享好剧
    回复

    使用道具 举报

    您需要登录后才可以回帖 登录 | 立即注册

    本版积分规则

    QQ|Archiver|手机版|小黑屋|影迷乐园

    GMT+8, 2020-9-30 04:04 , Processed in 0.107534 second(s), 28 queries .

    Powered by Discuz! X3.4

    Copyright © 2001-2020, Tencent Cloud.

    快速回复 返回顶部 返回列表