请选择 进入手机版 | 继续访问电脑版

YMLY-影迷乐园-特效字幕 蓝光原盘 1080P 高清动漫电影电视剧

 找回密码
 立即注册
搜索
查看: 287|回复: 19

[香港] [115][2004][1080P][楚汉骄雄][国粤双语.繁中字幕][张可颐.江华][30集全][MKV][42.46GB][The.Conqueror's.Story.S01.1080p.KKTV.WEB-DL.AAC2.0.H264-Ao]

[复制链接]
  • TA的每日心情
    奋斗
    2020-2-21 00:36
  • 签到天数: 656 天

    [LV.9]以坛为家II

    7499

    主题

    9379

    帖子

    5万

    积分

    超级版主

    与齐同行,是最初的梦想,也是一辈子的执着~

    Rank: 16Rank: 16Rank: 16Rank: 16

    积分
    55453

    内测勋章最佳新人十二生肖之猴VIP包月勋章影迷男神小土豪勋章土豪勋章富甲一方精华勋章金话筒主题达人灌水之王

    发表于 2020-9-15 04:07:39 | 显示全部楼层 |阅读模式
    下载说明:

    近期百度云和谐的厉害,本剧将采用115网盘的方式分享,只能115网盘会员接收并下载,购买前请看清楚!


    ----转载自OurBits,感谢压制和原发布人员,特此鸣谢!----



    ◎译  名 楚汉骄雄 / Chor hong gil hung / The Conqueror's Story
    ◎片  名 楚漢驕雄
    ◎年  代 2004
    ◎产  地 中国香港
    ◎类  别 剧情 / 历史 / 古装
    ◎语  言 粤语
    ◎上映日期 2004
    ◎IMDb评分  7.1/10 from 12 users
    ◎IMDb链接  https://www.imdb.com/title/tt1247478
    ◎豆瓣评分 7.9/10 from 4892 users
    ◎豆瓣链接 https://movie.douban.com/subject/2342526/
    ◎集  数 30
    ◎片  长 45分钟
    ◎导  演 李添胜
    ◎编  剧 梁咏梅 / 张华标
    ◎主  演 张可颐
           江华
           郑少秋
           吴美珩


    ◎标  签 TVB | 港剧 | 郑少秋 | 江华 | 电视剧 | 古装 | 张可颐 | 看过的电视剧

    ◎简  介  

      秦朝末年,苛捐杂税重如山,民不聊生。富家千金吕雉(张可颐 饰)虽为女儿身,却胸怀大志,女扮男装外出寻找有志之士。她发现了时任泗水亭长刘邦(郑少秋 饰)宅心仁厚,对他渐渐生出好感。项羽(江华 饰)密谋起义,为了招揽黥面贼英布,单枪匹马闯入秦军军中将英布的仇人将领赵常斩杀,终于将英布收到帐下。刘邦发现了项羽的秘密。项羽本来想杀他灭口,但刘邦却对他表现得十分敬畏,哭诉了暴秦令人民生活凄苦,因此愿为他效力推翻暴君。于是项羽被感动了,决定招揽他,两人更以兄弟相称。随后,吕雉主动嫁给了刘邦,她知道自己将会辅助刘邦成就大业。
      秦始皇病逝,赵高扶立秦二世,秦二世荒淫无度,更引得天下大乱,群雄并起。项羽时势造英雄,终于揭竿起义了!
    1. General
    2. Format                         : Matroska
    3. Format version                 : Version 4 / Version 2
    4. File size                      : 1.33 GiB
    5. Duration                       : 43 min 52 s
    6. Overall bit rate               : 4 341 kb/s
    7. Encoded date                   : UTC 2019-09-03 14:44:47
    8. Writing application            : mkvmerge v31.0.0 ('Dolores In A Shoestand') 64-bit
    9. Writing library                : libebml v1.3.6 + libmatroska v1.4.9

    10. Video
    11. ID                             : 1
    12. Format                         : AVC
    13. Format/Info                    : Advanced Video Codec
    14. Format profile                 : High@L4.1
    15. Format settings                : CABAC / 5 Ref Frames
    16. Format settings, CABAC         : Yes
    17. Format settings, ReFrames      : 5 frames
    18. Codec ID                       : V_MPEG4/ISO/AVC
    19. Duration                       : 43 min 52 s
    20. Bit rate                       : 4 057 kb/s
    21. Width                          : 1 920 pixels
    22. Height                         : 1 080 pixels
    23. Display aspect ratio           : 16:9
    24. Frame rate mode                : Constant
    25. Frame rate                     : 29.970 (30000/1001) FPS
    26. Color space                    : YUV
    27. Chroma subsampling             : 4:2:0
    28. Bit depth                      : 8 bits
    29. Scan type                      : Progressive
    30. Bits/(Pixel*Frame)             : 0.065
    31. Stream size                    : 1.24 GiB (93%)
    32. Writing library                : x264 core 142
    33. Encoding settings              : cabac=1 / ref=5 / deblock=1:0:0 / analyse=0x3:0x113 / me=umh / subme=9 / psy=1 / psy_rd=1.00:0.00 / mixed_ref=1 / me_range=32 / chroma_me=1 / trellis=1 / 8x8dct=1 / cqm=0 / deadzone=21,11 / fast_pskip=1 / chroma_qp_offset=-2 / threads=6 / lookahead_threads=1 / sliced_threads=0 / nr=0 / decimate=1 / interlaced=0 / bluray_compat=0 / stitchable=1 / constrained_intra=0 / bframes=3 / b_pyramid=2 / b_adapt=1 / b_bias=0 / direct=3 / weightb=1 / open_gop=0 / weightp=2 / keyint=30 / keyint_min=3 / scenecut=0 / intra_refresh=0 / rc_lookahead=40 / rc=abr / mbtree=1 / bitrate=4057 / ratetol=1.0 / qcomp=0.60 / qpmin=0 / qpmax=69 / qpstep=4 / vbv_maxrate=6085 / vbv_bufsize=9127 / nal_hrd=none / filler=0 / ip_ratio=1.40 / aq=1:1.00
    34. Language                       : English
    35. Default                        : Yes
    36. Forced                         : No

    37. Audio #1
    38. ID                             : 2
    39. Format                         : AAC
    40. Format/Info                    : Advanced Audio Codec
    41. Format profile                 : LC
    42. Codec ID                       : A_AAC-2
    43. Duration                       : 43 min 52 s
    44. Bit rate                       : 192 kb/s
    45. Channel(s)                     : 2 channels
    46. Channel positions              : Front: L R
    47. Sampling rate                  : 44.1 kHz
    48. Frame rate                     : 43.066 FPS (1024 SPF)
    49. Compression mode               : Lossy
    50. Stream size                    : 60.2 MiB (4%)
    51. Title                          : Cantonese
    52. Language                       : Chinese
    53. Default                        : No
    54. Forced                         : No

    55. Audio #2
    56. ID                             : 4
    57. Format                         : AAC
    58. Format/Info                    : Advanced Audio Codec
    59. Format profile                 : LC
    60. Codec ID                       : A_AAC-2
    61. Duration                       : 43 min 52 s
    62. Bit rate                       : 93.6 kb/s
    63. Channel(s)                     : 2 channels
    64. Channel positions              : Front: L R
    65. Sampling rate                  : 44.1 kHz
    66. Frame rate                     : 43.066 FPS (1024 SPF)
    67. Compression mode               : Lossy
    68. Stream size                    : 29.4 MiB (2%)
    69. Title                          : Mandarin
    70. Language                       : Chinese
    71. Default                        : Yes
    72. Forced                         : No

    73. Text
    74. ID                             : 3
    75. Format                         : UTF-8
    76. Codec ID                       : S_TEXT/UTF8
    77. Codec ID/Info                  : UTF-8 Plain Text
    78. Duration                       : 43 min 4 s
    79. Bit rate                       : 68 b/s
    80. Count of elements              : 722
    81. Stream size                    : 21.5 KiB (0%)
    82. Language                       : Chinese
    83. Default                        : Yes
    84. Forced                         : No
    复制代码




    购买主题 已有 7 人购买  本主题需向作者支付 20 大洋 才能浏览
    郑重声明:
    本人提供的所有影视作品均是在网上搜集,任何涉及商业盈利目的均不得使用,否则产生的一切后果将由您自己承担!
    本人不对本人所发布的任何内容负任何法律责任!该下载内容仅做宽带测试使用,请在下载后24小时内删除。请购买正版!
    本人列出的文件没有保存在本站的服务器上,本人仅负责连接,本人对被传播文件的内容一无所知。
    如侵犯视频原作者或发行商版权,请联系本人删除!
    回复

    使用道具 举报

  • TA的每日心情
    奋斗
    昨天 13:04
  • 签到天数: 144 天

    [LV.7]常住居民III

    5

    主题

    532

    帖子

    37

    积分

    初级影迷

    Rank: 2

    积分
    37
    发表于 2020-9-15 06:37:48 | 显示全部楼层
    感谢分享····
    回复

    使用道具 举报

  • TA的每日心情
    开心
    昨天 07:00
  • 签到天数: 104 天

    [LV.6]常住居民II

    0

    主题

    251

    帖子

    15

    积分

    入门影迷

    Rank: 1

    积分
    15
    发表于 2020-9-15 07:08:29 | 显示全部楼层

    感谢分享····
    回复

    使用道具 举报

  • TA的每日心情
    开心
    昨天 07:09
  • 签到天数: 87 天

    [LV.6]常住居民II

    1

    主题

    858

    帖子

    183

    积分

    高级影迷

    Rank: 4

    积分
    183
    发表于 2020-9-15 07:19:20 | 显示全部楼层
    谢谢楼主分享
    回复

    使用道具 举报

  • TA的每日心情
    开心
    昨天 13:21
  • 签到天数: 60 天

    [LV.6]常住居民II

    1

    主题

    647

    帖子

    114

    积分

    中级影迷

    Rank: 3Rank: 3

    积分
    114
    发表于 2020-9-15 07:52:07 | 显示全部楼层
    感谢分享!
    回复

    使用道具 举报

  • TA的每日心情
    开心
    昨天 05:33
  • 签到天数: 162 天

    [LV.7]常住居民III

    0

    主题

    424

    帖子

    23

    积分

    入门影迷

    Rank: 1

    积分
    23
    发表于 2020-9-15 08:08:38 | 显示全部楼层
    这部剧张可颐的吕后最有看点
    回复

    使用道具 举报

  • TA的每日心情
    擦汗
    2020-8-27 09:38
  • 签到天数: 2 天

    [LV.1]初来乍到

    3

    主题

    187

    帖子

    17

    积分

    入门影迷

    Rank: 1

    积分
    17
    发表于 2020-9-15 08:49:08 | 显示全部楼层
    百度呢,没有百度怎样下?
    回复

    使用道具 举报

  • TA的每日心情
    开心
    4 天前
  • 签到天数: 76 天

    [LV.6]常住居民II

    3

    主题

    760

    帖子

    220

    积分

    高级影迷

    Rank: 4

    积分
    220
    发表于 2020-9-15 09:39:56 | 显示全部楼层
    感谢大佬分享好剧
    回复

    使用道具 举报

  • TA的每日心情
    奋斗
    昨天 14:58
  • 签到天数: 65 天

    [LV.6]常住居民II

    4

    主题

    800

    帖子

    69

    积分

    初级影迷

    Rank: 2

    积分
    69
    发表于 2020-9-15 10:39:51 | 显示全部楼层
    感谢分享。
    回复

    使用道具 举报

  • TA的每日心情

    2020-6-2 22:37
  • 签到天数: 94 天

    [LV.6]常住居民II

    1

    主题

    752

    帖子

    74

    积分

    中级影迷

    Rank: 3Rank: 3

    积分
    74
    发表于 2020-9-15 11:05:43 | 显示全部楼层
    可以可以,上段时间在找
    回复

    使用道具 举报

    您需要登录后才可以回帖 登录 | 立即注册

    本版积分规则

    QQ|Archiver|手机版|小黑屋|影迷乐园

    GMT+8, 2020-9-30 03:22 , Processed in 0.102406 second(s), 28 queries .

    Powered by Discuz! X3.4

    Copyright © 2001-2020, Tencent Cloud.

    快速回复 返回顶部 返回列表