请选择 进入手机版 | 继续访问电脑版

YMLY-影迷乐园-特效字幕 蓝光原盘 1080P 高清动漫电影电视剧

 找回密码
 立即注册
搜索
查看: 289|回复: 17

[美国] [115+百度][2012-2019][1080P][副总统S01-S07][外挂中英字幕.官方简中字幕][MKV][59.01GB][Veep.01-S07.1080p.BluRay.x265.10bit.AAC.5.1-Silence]

[复制链接]
  • TA的每日心情
    郁闷
    昨天 16:20
  • 签到天数: 35 天

    [LV.5]常住居民I

    3

    主题

    384

    帖子

    99

    积分

    中级影迷

    Rank: 3Rank: 3

    积分
    99
    发表于 2020-9-16 10:56:34 | 显示全部楼层 |阅读模式
    制作说明:
    新人贴,本剧集由个人收集整理,链接如有失效请即时私信,上线就会处理。侵删!
    SRT简中字幕:HBOGO官方字幕
    ASS中英字幕:大家字幕组,致谢!
    文件内原封英法西字幕





    ◎译  名 副总统 第一季/二当家/副人之仁(台)/副总统Selina(港)/致命的我
    ◎片  名 Veep Season 1
    ◎年  代 2012
    ◎产  地 美国
    ◎类  别 喜剧
    ◎语  言 英语
    ◎上映日期 2012-04-22(美国)
    ◎IMDb评分  8.3/10 from 43396 users
    ◎IMDb链接  https://www.imdb.com/title/tt1759761/
    ◎豆瓣评分 8.4/10 from 7863 users
    ◎豆瓣链接 https://movie.douban.com/subject/5379824/
    ◎集  数 8
    ◎片  长 27分钟
    ◎导  演 阿尔曼多·伊安努奇 Armando Iannucci / 特斯塔姆·莎佩罗 Tristram Shapeero / 克里斯多夫·莫利斯 Christopher Morris
    ◎编  剧 阿尔曼多·伊安努奇 Armando Iannucci / 西蒙·布莱克维尔 Simon Blackwell
    ◎主  演 茱莉亚·路易斯-德瑞弗斯 Julia Louis-Dreyfus
           马特·沃尔什 Matt Walsh
           安娜·克拉姆斯基 Anna Chlumsky
           托尼·海尔 Tony Hale
           里德·斯科特 Reid Scott
           蒂莫西·西蒙斯 Timothy Simons
           苏芙·布莱德肖 Sufe Bradshaw
           萨德·卡塔琳娜 Sade Katarina
           丹·弗兰科 Dan Franko
           梅根·安德森 Megan Anderson
           兰道尔·朴 Randall Park
           莎拉·萨瑟兰 Sarah Sutherland
           贾斯汀·多斯切尔 Justin Doescher
           凯文·杜恩 Kevin Dunn

    ◎标  签 美剧 | HBO | 喜剧 | 政治 | 美国 | 2012 | 电视剧 | 看过的电视剧

    ◎简  介

      《副总统》是HBO推出的一部喜剧,镜头对准了一个虚构的美国副总统的办公室。前参议员Selina Meyer接受任命,担任美国副总统一职。然而这份工作与她想象中的完全不一样。该剧聚焦Meyer和她的团队,她们希望在任职期间有所作为,留下政绩,而不要受深陷华盛顿的政治游戏中。

    ◎获奖情况

      第70届金球奖(2013)
      电视类音乐/喜剧类剧集最佳女主角(提名) 茱莉亚·路易斯-德瑞弗斯
      
      第64届黄金时段艾美奖  (2012)
      喜剧类最佳剧集(提名) 西蒙·布莱克维尔;托尼·罗什;茱莉亚·路易斯-德瑞弗斯;阿尔曼多·伊安努奇;斯蒂芬妮·莱恩
      喜剧类最佳女主角 茱莉亚·路易斯-德瑞弗斯




    ◎译  名 副总统 第七季/二当家
    ◎片  名 Veep Season 7
    ◎年  代 2019
    ◎产  地 美国
    ◎类  别 喜剧
    ◎语  言 英语
    ◎上映日期 2019-03-31(美国)
    ◎IMDb评分  8.8/10 from 723 users
    ◎IMDb链接  https://www.imdb.com/title/tt6932620/
    ◎豆瓣评分 9.5/10 from 2724 users
    ◎豆瓣链接 https://movie.douban.com/subject/27055899/
    ◎集  数 7
    ◎片  长 30分钟
    ◎导  演 大卫·曼德尔 David Mandel
    ◎编  剧 阿尔曼多·伊安努奇 Armando Iannucci / 刘易斯·莫顿 Lewis Morton
    ◎主  演 茱莉亚·路易斯-德瑞弗斯 Julia Louis-Dreyfus
           安娜·克拉姆斯基 Anna Chlumsky
           托尼·海尔 Tony Hale
           里德·斯科特 Reid Scott
           蒂莫西·西蒙斯 Timothy Simons
           马特·沃尔什 Matt Walsh
           凯文·杜恩 Kevin Dunn
           盖瑞·科尔 Gary Cole
           山姆·理查森 Sam Richardson
           莎拉·萨瑟兰 Sarah Sutherland
           克里·杜瓦尔 Clea DuVall
           苏芙·布莱德肖 Sufe Bradshaw
           马泰 Tzi Ma
           亚历山大·卡内拉科斯 Alexander Kanellakos

    ◎标  签 政治 | HBO | 喜剧 | 美国 | 讽刺 | 2019 | 黑色幽默 | 电视剧

    ◎简  介

      HBO宣布续订《副总统》第七季,将于2019年回归。

    ◎获奖情况

      第71届黄金时段艾美奖  (2019)
      喜剧类最佳剧集(提名)
      喜剧类最佳女主角(提名) 茱莉亚·路易斯-德瑞弗斯
      喜剧类最佳男配角(提名) 托尼·海尔
      喜剧类最佳女配角(提名) 安娜·克拉姆斯基
      喜剧类最佳客串男演员(提名) 彼特·麦尼科
      喜剧类最佳编剧(提名) 大卫·曼德尔
      
      第72届美国导演工会奖  (2020)
      最佳喜剧类剧集导演(提名) 大卫·曼德尔
      
      第72届美国编剧工会奖  (2020)
      电视奖喜剧类剧集最佳剧本(提名)
      电视奖喜剧类剧集最佳单集剧本(提名)
      
      第31届美国制片人工会奖  (2020)
      最佳喜剧类剧集制片人奖(提名)
      
      第56届美国声音效果协会奖  (2020)
      半小时剧集最佳音效(提名)
      
      第10届美国评论家选择电视奖  (2020)
      喜剧类最佳女主角(提名) 茱莉亚·路易斯-德瑞弗斯
      
      第20届美国电影学会奖  (2019)
      年度佳剧

    1. General
    2. Unique ID                      : 206921260920081199213079684184797499253 (0x9BAB95D32EA5A21D83D10A770EA64F75)
    3. Complete name                  : E:\Veep.S01E01.Fundraiser.mkv
    4. Format                         : Matroska
    5. Format version                 : Version 4
    6. File size                      : 972 MiB
    7. Duration                       : 29 min 17 s
    8. Overall bit rate               : 4 638 kb/s
    9. Movie name                     : Veep.S01E01.Fundraiser.BluRay.Remux.1080p.AVC.DTS-HD.MA.5.1-HiFi
    10. Encoded date                   : UTC 2019-12-27 22:45:43
    11. Writing application            : mkvmerge v41.0.0 ('Smarra') 64-bit
    12. Writing library                : libebml v1.3.9 + libmatroska v1.5.2
    13. Writing frontend               : StaxRip v1.7.0.6

    14. Video
    15. ID                             : 1
    16. Format                         : HEVC
    17. Format/Info                    : High Efficiency Video Coding
    18. Format profile                 : Main 10@L4@Main
    19. Codec ID                       : V_MPEGH/ISO/HEVC
    20. Duration                       : 29 min 17 s
    21. Bit rate                       : 4 002 kb/s
    22. Width                          : 1 920 pixels
    23. Height                         : 1 080 pixels
    24. Display aspect ratio           : 16:9
    25. Frame rate mode                : Constant
    26. Frame rate                     : 23.976 (24000/1001) FPS
    27. Color space                    : YUV
    28. Chroma subsampling             : 4:2:0
    29. Bit depth                      : 10 bits
    30. Bits/(Pixel*Frame)             : 0.080
    31. Stream size                    : 838 MiB (86%)
    32. Writing library                : x265 3.2+22-a8a2c4c37267:[Windows][GCC 9.2.0][64 bit] 10bit
    33. Encoding settings              : cpuid=1111039 / frame-threads=3 / numa-pools=8 / wpp / no-pmode / no-pme / no-psnr / no-ssim / log-level=2 / input-csp=1 / input-res=1920x1080 / interlace=0 / total-frames=42139 / level-idc=0 / high-tier=1 / uhd-bd=0 / ref=5 / no-allow-non-conformance / no-repeat-headers / annexb / no-aud / no-hrd / info / hash=0 / no-temporal-layers / open-gop / min-keyint=23 / keyint=250 / gop-lookahead=0 / bframes=8 / b-adapt=2 / b-pyramid / bframe-bias=0 / rc-lookahead=80 / lookahead-slices=4 / scenecut=40 / hist-scenecut=0 / radl=0 / no-splice / no-intra-refresh / ctu=64 / min-cu-size=8 / no-rect / no-amp / max-tu-size=32 / tu-inter-depth=1 / tu-intra-depth=1 / limit-tu=0 / rdoq-level=2 / dynamic-rd=0.00 / no-ssim-rd / signhide / no-tskip / nr-intra=0 / nr-inter=0 / no-constrained-intra / no-strong-intra-smoothing / max-merge=3 / limit-refs=3 / limit-modes / me=3 / subme=5 / merange=57 / temporal-mvp / no-frame-dup / no-hme / weightp / no-weightb / no-analyze-src-pics / deblock=-3:-3 / no-sao / no-sao-non-deblock / rd=4 / selective-sao=0 / no-early-skip / rskip / no-fast-intra / no-tskip-fast / no-cu-lossless / no-b-intra / no-splitrd-skip / rdpenalty=0 / psy-rd=2.00 / psy-rdoq=1.00 / no-rd-refine / no-lossless / cbqpoffs=0 / crqpoffs=0 / rc=abr / bitrate=4000 / qcomp=0.60 / qpstep=4 / stats-write=0 / stats-read=2 / cplxblur=20.0 / qblur=0.5 / ipratio=1.40 / pbratio=1.30 / aq-mode=3 / aq-strength=1.00 / cutree / zone-count=0 / no-strict-cbr / qg-size=32 / no-rc-grain / qpmax=69 / qpmin=0 / no-const-vbv / sar=0 / overscan=0 / videoformat=5 / range=0 / colorprim=2 / transfer=2 / colormatrix=2 / chromaloc=0 / display-window=0 / cll=0,0 / min-luma=0 / max-luma=1023 / log2-max-poc-lsb=8 / vui-timing-info / vui-hrd-info / slices=1 / no-opt-qp-pps / no-opt-ref-list-length-pps / no-multi-pass-opt-rps / scenecut-bias=0.05 / hist-threshold=0.01 / no-opt-cu-delta-qp / no-aq-motion / no-hdr / no-hdr-opt / no-dhdr10-opt / no-idr-recovery-sei / analysis-reuse-level=5 / scale-factor=0 / refine-intra=0 / refine-inter=0 / refine-mv=1 / refine-ctu-distortion=0 / no-limit-sao / ctu-info=0 / no-lowpass-dct / refine-analysis-type=0 / copy-pic=1 / max-ausize-factor=1.0 / no-dynamic-refine / no-single-sei / no-hevc-aq / no-svt / no-field / qp-adaptation-range=1.00 / no-scenecut-aware-qp
    34. Default                        : Yes
    35. Forced                         : No

    36. Audio #1
    37. ID                             : 2
    38. Format                         : AAC LC
    39. Format/Info                    : Advanced Audio Codec Low Complexity
    40. Codec ID                       : A_AAC-2
    41. Duration                       : 29 min 17 s
    42. Bit rate                       : 414 kb/s
    43. Channel(s)                     : 6 channels
    44. Channel layout                 : C L R Ls Rs LFE
    45. Sampling rate                  : 48.0 kHz
    46. Frame rate                     : 46.875 FPS (1024 SPF)
    47. Compression mode               : Lossy
    48. Delay relative to video        : 20 ms
    49. Stream size                    : 86.8 MiB (9%)
    50. Language                       : English
    51. Default                        : Yes
    52. Forced                         : No

    53. Audio #2
    54. ID                             : 3
    55. Format                         : AAC LC SBR
    56. Format/Info                    : Advanced Audio Codec Low Complexity with Spectral Band Replication
    57. Commercial name                : HE-AAC
    58. Format settings                : Explicit
    59. Codec ID                       : A_AAC-2
    60. Duration                       : 29 min 17 s
    61. Bit rate                       : 80.0 kb/s
    62. Channel(s)                     : 2 channels
    63. Channel layout                 : L R
    64. Sampling rate                  : 48.0 kHz
    65. Frame rate                     : 23.438 FPS (2048 SPF)
    66. Compression mode               : Lossy
    67. Delay relative to video        : 40 ms
    68. Stream size                    : 16.8 MiB (2%)
    69. Title                          : Commentary
    70. Language                       : English
    71. Default                        : No
    72. Forced                         : No

    73. Audio #3
    74. ID                             : 4
    75. Format                         : AAC LC SBR
    76. Format/Info                    : Advanced Audio Codec Low Complexity with Spectral Band Replication
    77. Commercial name                : HE-AAC
    78. Format settings                : Explicit
    79. Codec ID                       : A_AAC-2
    80. Duration                       : 29 min 17 s
    81. Bit rate                       : 80.0 kb/s
    82. Channel(s)                     : 2 channels
    83. Channel layout                 : L R
    84. Sampling rate                  : 48.0 kHz
    85. Frame rate                     : 23.438 FPS (2048 SPF)
    86. Compression mode               : Lossy
    87. Delay relative to video        : 40 ms
    88. Stream size                    : 16.8 MiB (2%)
    89. Title                          : Commentary
    90. Language                       : English
    91. Default                        : No
    92. Forced                         : No

    93. Text #1
    94. ID                             : 5
    95. Format                         : PGS
    96. Muxing mode                    : zlib
    97. Codec ID                       : S_HDMV/PGS
    98. Codec ID/Info                  : Picture based subtitle format used on BDs/HD-DVDs
    99. Duration                       : 28 min 52 s
    100. Bit rate                       : 78.1 kb/s
    101. Count of elements              : 1322
    102. Stream size                    : 16.1 MiB (2%)
    103. Language                       : English
    104. Default                        : No
    105. Forced                         : No

    106. Text #2
    107. ID                             : 6
    108. Format                         : PGS
    109. Muxing mode                    : zlib
    110. Codec ID                       : S_HDMV/PGS
    111. Codec ID/Info                  : Picture based subtitle format used on BDs/HD-DVDs
    112. Duration                       : 28 min 52 s
    113. Bit rate                       : 54.1 kb/s
    114. Count of elements              : 1146
    115. Stream size                    : 11.2 MiB (1%)
    116. Language                       : French
    117. Default                        : No
    118. Forced                         : No

    119. Text #3
    120. ID                             : 7
    121. Format                         : PGS
    122. Muxing mode                    : zlib
    123. Codec ID                       : S_HDMV/PGS
    124. Codec ID/Info                  : Picture based subtitle format used on BDs/HD-DVDs
    125. Duration                       : 29 min 3 s
    126. Bit rate                       : 68.4 kb/s
    127. Count of elements              : 1296
    128. Stream size                    : 14.2 MiB (1%)
    129. Language                       : Spanish
    130. Default                        : No
    131. Forced                         : No

    132. Menu
    133. 00:00:00.000                   : en:Chapter 01
    134. 00:00:18.393                   : en:Chapter 02
    135. 00:07:53.098                   : en:Chapter 03
    136. 00:14:00.131                   : en:Chapter 04
    137. 00:20:43.826                   : en:Chapter 05
    138. 00:27:59.678                   : en:Chapter 06
    复制代码







    购买主题 已有 7 人购买  本主题需向作者支付 80 大洋 才能浏览
    回复

    使用道具 举报

  • TA的每日心情
    开心
    昨天 07:09
  • 签到天数: 87 天

    [LV.6]常住居民II

    1

    主题

    858

    帖子

    183

    积分

    高级影迷

    Rank: 4

    积分
    183
    发表于 2020-9-16 11:18:38 | 显示全部楼层
    楼主辛苦了
    回复

    使用道具 举报

  • TA的每日心情
    慵懒
    2 小时前
  • 签到天数: 445 天

    [LV.9]以坛为家II

    565

    主题

    1201

    帖子

    5654

    积分

    超级版主

    Rank: 16Rank: 16Rank: 16Rank: 16

    积分
    5654

    超版勋章版主勋章优秀版主土豪勋章小土豪勋章主题达人百分百好孩子最佳新人影迷男神富甲一方十二生肖之猴巨蟹座勋章

    发表于 2020-9-16 12:13:26 | 显示全部楼层
    影片截图补一下
    回复

    使用道具 举报

  • TA的每日心情
    开心
    昨天 13:21
  • 签到天数: 60 天

    [LV.6]常住居民II

    1

    主题

    647

    帖子

    114

    积分

    中级影迷

    Rank: 3Rank: 3

    积分
    114
    发表于 2020-9-16 13:08:26 | 显示全部楼层
    感谢分享!
    回复

    使用道具 举报

  • TA的每日心情
    开心
    4 天前
  • 签到天数: 76 天

    [LV.6]常住居民II

    3

    主题

    760

    帖子

    220

    积分

    高级影迷

    Rank: 4

    积分
    220
    发表于 2020-9-16 15:46:00 | 显示全部楼层
    感谢大佬分享好剧
    回复

    使用道具 举报

  • TA的每日心情
    郁闷
    2020-7-26 13:16
  • 签到天数: 13 天

    [LV.3]偶尔看看II

    1

    主题

    301

    帖子

    92

    积分

    中级影迷

    Rank: 3Rank: 3

    积分
    92
    发表于 2020-9-16 17:46:40 | 显示全部楼层
    感谢楼主分享
    回复

    使用道具 举报

  • TA的每日心情
    开心
    昨天 19:06
  • 签到天数: 149 天

    [LV.7]常住居民III

    2

    主题

    1546

    帖子

    372

    积分

    超级影迷

    Rank: 6Rank: 6

    积分
    372
    发表于 2020-9-16 19:59:17 | 显示全部楼层
    感谢分享。
    回复

    使用道具 举报

  • TA的每日心情
    无聊
    3 小时前
  • 签到天数: 258 天

    [LV.8]以坛为家I

    41

    主题

    982

    帖子

    132

    积分

    中级影迷

    Rank: 3Rank: 3

    积分
    132
    发表于 2020-9-16 23:47:07 | 显示全部楼层
    可以,很喜欢的一部剧
    回复

    使用道具 举报

  • TA的每日心情
    擦汗
    3 小时前
  • 签到天数: 102 天

    [LV.6]常住居民II

    2

    主题

    1093

    帖子

    223

    积分

    高级影迷

    Rank: 4

    积分
    223
    发表于 2020-9-17 00:11:14 | 显示全部楼层
    谢谢分享呀
    回复

    使用道具 举报

  • TA的每日心情
    开心
    2 小时前
  • 签到天数: 147 天

    [LV.7]常住居民III

    2

    主题

    364

    帖子

    84

    积分

    中级影迷

    Rank: 3Rank: 3

    积分
    84
    发表于 2020-9-17 03:07:36 | 显示全部楼层
    感谢楼主分享
    回复

    使用道具 举报

    您需要登录后才可以回帖 登录 | 立即注册

    本版积分规则

    QQ|Archiver|手机版|小黑屋|影迷乐园

    GMT+8, 2020-9-30 03:11 , Processed in 0.094972 second(s), 29 queries .

    Powered by Discuz! X3.4

    Copyright © 2001-2020, Tencent Cloud.

    快速回复 返回顶部 返回列表