请选择 进入手机版 | 继续访问电脑版

YMLY-影迷乐园-特效字幕 蓝光原盘 1080P 高清动漫电影电视剧

 找回密码
 立即注册
搜索
查看: 1078|回复: 51

[日本] [百度][修复版][1979][4K][排球女将][日语中字][荒木由美子.南条丰.小濑格][71集全][34.52G][Moero! Attack.1979.HEVC.4K.WEB-DL.H265.AAC-YMLY]

[复制链接]
  • TA的每日心情

    2020-8-15 07:51
  • 签到天数: 139 天

    [LV.7]常住居民III

    100

    主题

    398

    帖子

    1272

    积分

    ★★发布员★★

    积分
    1272

    最佳新人影迷男神

    发表于 2020-9-24 15:20:41 | 显示全部楼层 |阅读模式


    ◎译  名 排球女将 / 青春的火焰 / 燃烧吧!扣球 / Moero! Attack
    ◎片  名 燃えろアタック
    ◎年  代 1979
    ◎产  地 日本
    ◎类  别 剧情 / 运动
    ◎语  言 日语
    ◎上映日期 1979-01-05(日本)
    ◎豆瓣评星 ★★★★☆
    ◎豆瓣评分 9/10 from 8,410 users
    ◎豆瓣链接 https://movie.douban.com/subject/2338146/
    ◎单集片长 20分钟
    ◎集  数 71
    ◎演  员 荒木由美子 / Yumiko Araki
          石田纪子 / Noriko Ishida
          姚锡娟 / Xijuan Yao
          小林昭二 / Akiji Kobayashi | 饰 小鹿幸太郎
    ◎编  剧 上原正三 / Shozo Uehara
          伊上胜 / Masaru Igami
          石森章太郎 / Shotaro Ishinomori
    ◎其  它 石田纪子 / Noriko Ishida

    ◎标  签 日剧 | 经典 | 小鹿纯子 | 日本 | 排球女将 | 童年 | 电视剧 | 看过的电视剧

    ◎简  介 

      北国少女小鹿纯子(荒木由美子 饰)虽然自幼失去了母亲,但她依旧开朗、乐观、精力充沛。从四岁起,纯子就跟着爸爸训练,学习击球。排球成了纯子从小到大生活的一部分,因此纯子最大的愿望就是参加奥运会,完成妈妈的愿望。因一次机会,纯子告别了家乡来到了东京,加入到了白富士学校的女子排球队。在这里,纯子的球技每日剧增,练就了晴空霹雳等绝招,也结识了许多好友。实力强大的纯子进入到了梦寐以求的国家女子排球队,这里汇聚了全国实力最强的女子排球队员,纯子的征战才刚刚开始……
      本剧改编自石森章太郎的同名漫画,在20世纪80年代风靡于日本、中国等地,成为了一代人的记忆。其中小鹿纯子和她的招数至今还被人娓娓道来。

    1. General
    2. Complete name                  : E:\N_m3u8DL-CLI_v2.5.7_with_ffmpeg_and_SimpleG\排球女将 01.mp4
    3. Format                         : MPEG-4
    4. Format profile                 : Base Media
    5. Codec ID                       : isom (isom/iso2/mp41)
    6. File size                      : 659 MiB
    7. Duration                       : 24 min 51 s
    8. Overall bit rate mode          : Variable
    9. Overall bit rate               : 3 710 kb/s
    10. Recorded date                  : 2020-09-24T14:08:21.4265665+08:00
    11. Writing application            : Lavf58.32.104

    12. Video
    13. ID                             : 1
    14. Format                         : HEVC
    15. Format/Info                    : High Efficiency Video Coding
    16. Format profile                 : Main@L5@Main
    17. Codec ID                       : hev1
    18. Codec ID/Info                  : High Efficiency Video Coding
    19. Duration                       : 24 min 50 s
    20. Bit rate                       : 3 513 kb/s
    21. Width                          : 2 868 pixels
    22. Height                         : 2 160 pixels
    23. Display aspect ratio           : 4:3
    24. Frame rate mode                : Variable
    25. Frame rate                     : 23.976 (23976/1000) FPS
    26. Minimum frame rate             : 23.974 FPS
    27. Maximum frame rate             : 23.981 FPS
    28. Color space                    : YUV
    29. Chroma subsampling             : 4:2:0
    30. Bit depth                      : 8 bits
    31. Bits/(Pixel*Frame)             : 0.024
    32. Stream size                    : 624 MiB (95%)
    33. Color range                    : Limited
    34. Color primaries                : BT.709
    35. Transfer characteristics       : BT.709
    36. Matrix coefficients            : BT.709
    37. Codec configuration box        : hvcC

    38. Audio
    39. ID                             : 2
    40. Format                         : AAC LC
    41. Format/Info                    : Advanced Audio Codec Low Complexity
    42. Codec ID                       : mp4a-40-2
    43. Duration                       : 24 min 51 s
    44. Bit rate mode                  : Variable
    45. Bit rate                       : 192 kb/s
    46. Channel(s)                     : 2 channels
    47. Channel layout                 : L R
    48. Sampling rate                  : 44.1 kHz
    49. Frame rate                     : 43.066 FPS (1024 SPF)
    50. Compression mode               : Lossy
    51. Stream size                    : 33.7 MiB (5%)
    52. Default                        : Yes
    53. Alternate group                : 1

    复制代码










    购买主题 已有 15 人购买  本主题需向作者支付 100 大洋 才能浏览
    回复

    使用道具 举报

  • TA的每日心情
    开心
    昨天 06:24
  • 签到天数: 392 天

    [LV.9]以坛为家II

    0

    主题

    751

    帖子

    340

    积分

    超级影迷

    Rank: 6Rank: 6

    积分
    340
    发表于 2020-9-24 16:06:57 | 显示全部楼层
    本帖最后由 brucewell 于 2020-9-24 16:08 编辑

    这个太经典了,可惜没国语,先下了收藏!
    楼主,怎么没链接......

    点评

    匹配的国语音轨已发布至音轨分享区  发表于 2020-10-17 16:10
    补上了。可以下载了  详情 回复 发表于 2020-9-24 17:06
    回复

    使用道具 举报

  • TA的每日心情
    开心
    3 小时前
  • 签到天数: 86 天

    [LV.6]常住居民II

    1

    主题

    946

    帖子

    172

    积分

    高级影迷

    Rank: 4

    积分
    172
    发表于 2020-9-24 16:46:18 | 显示全部楼层
    感谢分享!
    回复

    使用道具 举报

  • TA的每日心情

    2020-8-15 07:51
  • 签到天数: 139 天

    [LV.7]常住居民III

    100

    主题

    398

    帖子

    1272

    积分

    ★★发布员★★

    积分
    1272

    最佳新人影迷男神

     楼主| 发表于 2020-9-24 17:06:55 | 显示全部楼层
    brucewell 发表于 2020-9-24 16:06
    这个太经典了,可惜没国语,先下了收藏!
    楼主,怎么没链接......

    补上了。可以下载了
    回复

    使用道具 举报

  • TA的每日心情
    开心
    前天 17:09
  • 签到天数: 179 天

    [LV.7]常住居民III

    3

    主题

    456

    帖子

    28

    积分

    初级影迷

    Rank: 2

    积分
    28
    发表于 2020-9-24 17:20:53 | 显示全部楼层
    经典剧集 很喜欢
    回复

    使用道具 举报

  • TA的每日心情

    昨天 10:44
  • 签到天数: 51 天

    [LV.5]常住居民I

    2

    主题

    507

    帖子

    29

    积分

    初级影迷

    Rank: 2

    积分
    29
    发表于 2020-9-24 19:27:54 | 显示全部楼层
    风靡于日本、中国等地,成为了一代人的记忆
    回复

    使用道具 举报

  • TA的每日心情

    2020-6-2 22:37
  • 签到天数: 94 天

    [LV.6]常住居民II

    1

    主题

    767

    帖子

    64

    积分

    初级影迷

    Rank: 2

    积分
    64
    发表于 2020-9-24 21:30:14 | 显示全部楼层
    这都有,必须收藏之
    回复

    使用道具 举报

  • TA的每日心情

    昨天 08:55
  • 签到天数: 34 天

    [LV.5]常住居民I

    1

    主题

    84

    帖子

    5

    积分

    入门影迷

    Rank: 1

    积分
    5
    发表于 2020-9-24 21:37:28 | 显示全部楼层
    这部这么旧的剧都修复了
    回复

    使用道具 举报

  • TA的每日心情
    擦汗
    前天 22:01
  • 签到天数: 125 天

    [LV.7]常住居民III

    2

    主题

    1195

    帖子

    261

    积分

    超级影迷

    Rank: 6Rank: 6

    积分
    261
    发表于 2020-9-25 00:12:01 | 显示全部楼层
    谢谢分享喽
    回复

    使用道具 举报

  • TA的每日心情
    开心
    昨天 00:00
  • 签到天数: 112 天

    [LV.6]常住居民II

    1

    主题

    1129

    帖子

    233

    积分

    高级影迷

    Rank: 4

    积分
    233
    发表于 2020-9-25 00:26:06 | 显示全部楼层
    谢谢楼主分享
    回复

    使用道具 举报

    您需要登录后才可以回帖 登录 | 立即注册

    本版积分规则

    QQ|Archiver|手机版|小黑屋|影迷乐园

    GMT+8, 2020-10-25 21:06 , Processed in 0.169893 second(s), 29 queries .

    Powered by Discuz! X3.4

    Copyright © 2001-2020, Tencent Cloud.

    快速回复 返回顶部 返回列表