请选择 进入手机版 | 继续访问电脑版

YMLY-影迷乐园-特效字幕 蓝光原盘 1080P 高清动漫电影电视剧

 找回密码
 立即注册
搜索
查看: 144|回复: 11

[美国] [百度][2020][1080P][怪物乐园.第一季][外挂中英字幕][8集全][MKV][14.1GB][Monsterland.S01.1080p.HULU.WEB-DL.DDP5.1.H.264-NTG]

[复制链接]
  • TA的每日心情
    擦汗
    11 小时前
  • 签到天数: 215 天

    [LV.7]常住居民III

    252

    主题

    843

    帖子

    2827

    积分

    超级版主

    Rank: 16Rank: 16Rank: 16Rank: 16

    积分
    2827

    超版勋章版主勋章土豪勋章小土豪勋章最佳新人十二生肖之猴双鱼座勋章百分百好孩子精华勋章

    发表于 7 天前 | 显示全部楼层 |阅读模式
    下载说明:

    百度网盘分享极其不稳定,如有链接失效,请第一时间站内短消息通知我,上线后会第一时间补发!


    ----外挂字幕来自YYeTs,本人调整样式稍作润色,感谢辛苦翻译!----




    ◎译  名 怪物乐园/怪兽的土地/怪兽乐园

    ◎片  名 Monsterland

    ◎年  代 2020

    ◎产  地 美国

    ◎类  型 电视剧

    ◎类  别 恐怖

    ◎语  言 英语

    ◎上映日期 2020-10-02(美国)

    ◎IMDb链接 https://www.imdb.com/title/tt10404698/

    ◎豆瓣链接 https://movie.douban.com/subject/34955359/

    ◎集  数 8

    ◎标  签 奇幻 | 美剧 | 恐怖 | 惊悚 | 还没播出的电视剧 | 悬疑 | 剧情 | 改编

    ◎简  介
      Hulu的恐怖诗选剧《怪兽乐园 Monsterland》改编自Nathan Ballingrud短篇集《North American Lake Monsters: Stories》,剧集角色包括一些奇幻生物,例如堕落天使﹑狼人等,他们为求扭转自己的生活而绝望地采取一些行为,从而表达出人类与「他们」的差异其实并不大。
    《怪物乐园》的演职员(9人)

    1. General
    2. Unique ID : 278935479783849900138790894156652697579 (0xD1D904F149E9A0C079CC7B16BD9F57EB)
    3. Complete name : Monsterland.S01E01.Port.Fourchon.Louisiana.1080p.HULU.WEB-DL.DDP5.1.H.264-NTG.mkv
    4. Format : Matroska
    5. Format version : Version 4
    6. File size : 1.90 GiB
    7. Duration : 52 min 38 s
    8. Overall bit rate : 5 167 kb/s
    9. Writing application : mkvmerge v21.0.0 ('Tardigrades Will Inherit The Earth') 64-bit
    10. Writing library : libebml v1.3.5 + libmatroska v1.4.8

    11. Video
    12. ID : 1
    13. Format : AVC
    14. Format/Info : Advanced Video Codec
    15. Format profile : High@L4
    16. Format settings : CABAC / 4 Ref Frames
    17. Format settings, CABAC : Yes
    18. Format settings, Reference frames : 4 frames
    19. Codec ID : V_MPEG4/ISO/AVC
    20. Duration : 52 min 38 s
    21. Bit rate : 4 909 kb/s
    22. Width : 1 920 pixels
    23. Height : 1 080 pixels
    24. Display aspect ratio : 16:9
    25. Frame rate mode : Constant
    26. Frame rate : 23.976 (24000/1001) FPS
    27. Color space : YUV
    28. Chroma subsampling : 4:2:0
    29. Bit depth : 8 bits
    30. Scan type : Progressive
    31. Bits/(Pixel*Frame) : 0.099
    32. Stream size : 1.81 GiB (95%)
    33. Default : Yes
    34. Forced : No

    35. Audio
    36. ID : 2
    37. Format : E-AC-3
    38. Format/Info : Enhanced AC-3
    39. Commercial name : Dolby Digital Plus
    40. Codec ID : A_EAC3
    41. Duration : 52 min 38 s
    42. Bit rate mode : Constant
    43. Bit rate : 256 kb/s
    44. Channel(s) : 6 channels
    45. Channel layout : L R C LFE Ls Rs
    46. Sampling rate : 48.0 kHz
    47. Frame rate : 31.250 FPS (1536 SPF)
    48. Compression mode : Lossy
    49. Stream size : 96.4 MiB (5%)
    50. Language : English
    51. Service kind : Complete Main
    52. Default : Yes
    53. Forced : No

    54. Text #1
    55. ID : 3
    56. Format : UTF-8
    57. Codec ID : S_TEXT/UTF8
    58. Codec ID/Info : UTF-8 Plain Text
    59. Duration : 51 min 29 s
    60. Bit rate : 49 b/s
    61. Count of elements : 661
    62. Stream size : 18.5 KiB (0%)
    63. Title : SDH
    64. Language : English
    65. Default : No
    66. Forced : No

    67. Text #2
    68. ID : 4
    69. Format : UTF-8
    70. Codec ID : S_TEXT/UTF8
    71. Codec ID/Info : UTF-8 Plain Text
    72. Duration : 51 min 38 s
    73. Bit rate : 51 b/s
    74. Count of elements : 639
    75. Stream size : 19.4 KiB (0%)
    76. Language : Spanish
    77. Default : No
    78. Forced : No

    79. Menu
    80. 00:05:57.015 : en:00:05:57.015
    81. 00:14:04.014 : en:00:14:04.014
    82. 00:24:21.010 : en:00:24:21.010
    83. 00:38:35.019 : en:00:38:35.019
    84. 00:51:39.015 : en:Credits
    复制代码











    购买主题 已有 4 人购买  本主题需向作者支付 15 大洋 才能浏览
    回复

    使用道具 举报

  • TA的每日心情
    开心
    2020-7-17 00:34
  • 签到天数: 5 天

    [LV.2]偶尔看看I

    0

    主题

    71

    帖子

    10

    积分

    入门影迷

    Rank: 1

    积分
    10
    发表于 7 天前 | 显示全部楼层
    感谢分享,下来看看
    回复

    使用道具 举报

  • TA的每日心情
    慵懒
    昨天 17:17
  • 签到天数: 92 天

    [LV.6]常住居民II

    37

    主题

    1509

    帖子

    124

    积分

    中级影迷

    Rank: 3Rank: 3

    积分
    124
    发表于 7 天前 | 显示全部楼层
    收下了,谢谢分享!
    回复

    使用道具 举报

  • TA的每日心情
    开心
    2020-9-16 23:04
  • 签到天数: 1 天

    [LV.1]初来乍到

    0

    主题

    13

    帖子

    6

    积分

    入门影迷

    Rank: 1

    积分
    6
    发表于 7 天前 | 显示全部楼层
    谢谢分享~~~~~~
    回复

    使用道具 举报

  • TA的每日心情
    开心
    7 天前
  • 签到天数: 155 天

    [LV.7]常住居民III

    2

    主题

    1579

    帖子

    398

    积分

    超级影迷

    Rank: 6Rank: 6

    积分
    398
    发表于 7 天前 | 显示全部楼层
    感谢分享。
    回复

    使用道具 举报

  • TA的每日心情
    开心
    3 天前
  • 签到天数: 15 天

    [LV.4]偶尔看看III

    0

    主题

    125

    帖子

    9

    积分

    入门影迷

    Rank: 1

    积分
    9
    发表于 7 天前 | 显示全部楼层
    这海报不错
    回复

    使用道具 举报

  • TA的每日心情
    开心
    4 小时前
  • 签到天数: 61 天

    [LV.6]常住居民II

    1

    主题

    529

    帖子

    159

    积分

    高级影迷

    Rank: 4

    积分
    159
    发表于 6 天前 | 显示全部楼层
    感谢分享!
    回复

    使用道具 举报

  • TA的每日心情
    奋斗
    2 小时前
  • 签到天数: 70 天

    [LV.6]常住居民II

    1

    主题

    826

    帖子

    68

    积分

    初级影迷

    Rank: 2

    积分
    68
    发表于 6 天前 | 显示全部楼层
    谢谢分享!
    回复

    使用道具 举报

  • TA的每日心情
    擦汗
    3 小时前
  • 签到天数: 47 天

    [LV.5]常住居民I

    2

    主题

    467

    帖子

    39

    积分

    初级影迷

    Rank: 2

    积分
    39
    发表于 6 天前 | 显示全部楼层
    哈哈哈不错的片子
    回复

    使用道具 举报

  • TA的每日心情
    奋斗
    4 小时前
  • 签到天数: 534 天

    [LV.9]以坛为家II

    38

    主题

    6097

    帖子

    806

    积分

    资深影迷

    Rank: 10Rank: 10Rank: 10

    积分
    806
    发表于 4 天前 | 显示全部楼层
    谢谢朋友发布、分享!
    回复

    使用道具 举报

    您需要登录后才可以回帖 登录 | 立即注册

    本版积分规则

    QQ|Archiver|手机版|小黑屋|影迷乐园

    GMT+8, 2020-10-20 11:32 , Processed in 0.105420 second(s), 28 queries .

    Powered by Discuz! X3.4

    Copyright © 2001-2020, Tencent Cloud.

    快速回复 返回顶部 返回列表