请选择 进入手机版 | 继续访问电脑版

YMLY-影迷乐园-特效字幕 蓝光原盘 1080P 高清动漫电影电视剧

 找回密码
 立即注册
搜索
查看: 105|回复: 12

[日本] [115][2018][1080P][人生删除事务所][日语.繁中字幕][山田孝之.菅田将晖][8集全][MKV][8.63GB][dele.S01.1080p.KKTV.WEB-DL.AAC2.0.H264-Ao]

[复制链接]
  • TA的每日心情
    奋斗
    2020-2-21 00:36
  • 签到天数: 656 天

    [LV.9]以坛为家II

    7725

    主题

    9686

    帖子

    5万

    积分

    超级版主

    与齐同行,是最初的梦想,也是一辈子的执着~

    Rank: 16Rank: 16Rank: 16Rank: 16

    积分
    58477

    内测勋章最佳新人十二生肖之猴VIP包月勋章影迷男神小土豪勋章土豪勋章富甲一方精华勋章金话筒主题达人灌水之王

    发表于 5 天前 | 显示全部楼层 |阅读模式
    KKTV源,内封繁中软字幕!可自行选择和关闭字幕。


    下载说明:

    近期百度云和谐的厉害,本剧将采用115网盘的方式分享,只能115网盘会员接收并下载,购买前请看清楚,如需百度云链接请在站内短消息联系我,本人会抽空搬运至百度云网盘,但是需扣除10大洋(论坛币,每天做日常任务可获取)作为搬运费!


    ----转载自OurBits,感谢压制和原发布人员,特此鸣谢!----



    ◎译  名 人生删除事务所
    ◎片  名 dele ディーリー
    ◎年  代 2018
    ◎产  地 日本
    ◎类  别 剧情 / 犯罪
    ◎语  言 日语
    ◎上映日期 2018-07-27(日本)
    ◎IMDb评分  7.4/10 from 92 users
    ◎IMDb链接  https://www.imdb.com/title/tt9002012
    ◎豆瓣评分 8.5/10 from 38230 users
    ◎豆瓣链接 https://movie.douban.com/subject/30232260/
    ◎集  数 8
    ◎片  长 45分钟
    ◎导  演 泷本智行 Tomoyuki Takimoto / 常广丈太 ta Tsunehiro
    ◎编  剧 本多孝好 Takayoshi Honda / 金城一纪 Kazuki Kaneshiro / 青岛武  Takeshi Aoshima / 渡边雄介 suke Watanabe / 德永富彦 Tomihiko Tokunaga / 泷本智行 Tomoyuki Takimoto
    ◎主  演 山田孝之 Takayuki Yamada
           菅田将晖 Masaki Suda
           麻生久美子 Kumiko Aso
           桥本爱 Ai Hashimoto
           野田洋次郎 Yôjirô Noda
           石桥静河 Shizuka Ishibashi
           余贵美子 Kimiko Yo
           渡边大知 Daichi Watanabe
           朝比奈秀树 Hideki Asahina
           大塚明夫 Akio Ôtsuka
           松本若菜 Wakana Matsumoto
           中田青渚 Seina Nakata


    ◎标  签 日剧 | 日本 | 悬疑 | 犯罪 | 人性 | 剧情 | 2018 | 电视剧

    ◎简  介  

      日本朝日电视台2018年制作的电视剧,由泷本智行执导,山田孝之、菅田将晖主演。本剧以电子社会独有的“电子遗物”为主题,讲述了围绕着专业承接在委托人死后为其删除电脑、手机中的电子数据的人生删除事务所发生的故事。
      就算你不在人世,你的手机和电脑也还活着,帮你删除(dele)不利记录,主演山田孝之、菅田将晖,以及支撑他们俩的唯一红花麻生久美子,他们在2018年夏天
      挑战完全原创电视剧初次编写剧本的畅销作家本多孝好编织出的“见所未见”的故事,本剧主人公坂上圭司(山田)和真柴祐太郎(菅田)赖以为生的工作是接受客户委托,在其过世后偷偷抹去一切不方便公开的记录,可是他们完成任务时总会被卷入各种各种的问题之中,不得不去解开客户的人生以及藏匿其中的真相.....
      该剧故事围绕死者留下的数字遗物展开,山田孝之在剧中饰演因原因不明的疾病下半身不遂,只能坐在轮椅上生活的坂上圭司,菅田将晖饰演隐瞒了不为人知的过去的真柴祐太郎,圭司的律师姐姐坂上舞由麻生久美子饰演。

    ◎获奖情况  

      第5届豆瓣电影年度榜单(2018)
      评分最高的日剧(提名)
    1. General
    2. Unique ID                      : 118238722301079278475023412727785283447 (0x58F3F3181B0E176CC4A5DA3DCA295F77)
    3. Format                         : Matroska
    4. Format version                 : Version 4
    5. File size                      : 1.08 GiB
    6. Duration                       : 48 min 24 s
    7. Overall bit rate               : 3 191 kb/s
    8. Encoded date                   : UTC 2019-03-18 17:20:42
    9. Writing application            : mkvmerge v32.0.0 ('Astral Progressions') 64-bit
    10. Writing library                : libebml v1.3.7 + libmatroska v1.5.0

    11. Video
    12. ID                             : 1
    13. Format                         : AVC
    14. Format/Info                    : Advanced Video Codec
    15. Format profile                 : High@L4.1
    16. Format settings                : CABAC / 5 Ref Frames
    17. Format settings, CABAC         : Yes
    18. Format settings, Reference fra : 5 frames
    19. Codec ID                       : V_MPEG4/ISO/AVC
    20. Duration                       : 48 min 24 s
    21. Bit rate                       : 3 000 kb/s
    22. Width                          : 1 920 pixels
    23. Height                         : 1 080 pixels
    24. Display aspect ratio           : 16:9
    25. Frame rate mode                : Constant
    26. Frame rate                     : 29.970 (30000/1001) FPS
    27. Color space                    : YUV
    28. Chroma subsampling             : 4:2:0
    29. Bit depth                      : 8 bits
    30. Scan type                      : Progressive
    31. Bits/(Pixel*Frame)             : 0.048
    32. Stream size                    : 1.01 GiB (94%)
    33. Writing library                : x264 core 142
    34. Encoding settings              : cabac=1 / ref=5 / deblock=1:0:0 / analyse=0x3:0x113 / me=umh / subme=9 / psy=1 / psy_rd=1.00:0.00 / mixed_ref=1 / me_range=32 / chroma_me=1 / trellis=1 / 8x8dct=1 / cqm=0 / deadzone=21,11 / fast_pskip=1 / chroma_qp_offset=-2 / threads=12 / lookahead_threads=1 / sliced_threads=0 / nr=0 / decimate=1 / interlaced=0 / bluray_compat=0 / stitchable=1 / constrained_intra=0 / bframes=3 / b_pyramid=2 / b_adapt=1 / b_bias=0 / direct=3 / weightb=1 / open_gop=0 / weightp=2 / keyint=30 / keyint_min=3 / scenecut=0 / intra_refresh=0 / rc_lookahead=40 / rc=abr / mbtree=1 / bitrate=3000 / ratetol=1.0 / qcomp=0.60 / qpmin=0 / qpmax=69 / qpstep=4 / vbv_maxrate=4500 / vbv_bufsize=6750 / nal_hrd=none / filler=0 / ip_ratio=1.40 / aq=1:1.00
    35. Language                       : English
    36. Default                        : Yes
    37. Forced                         : No

    38. Audio
    39. ID                             : 2
    40. Format                         : AAC LC
    41. Format/Info                    : Advanced Audio Codec Low Complexity
    42. Codec ID                       : A_AAC-2
    43. Duration                       : 48 min 24 s
    44. Bit rate                       : 192 kb/s
    45. Channel(s)                     : 2 channels
    46. Channel layout                 : L R
    47. Sampling rate                  : 44.1 kHz
    48. Frame rate                     : 43.066 FPS (1024 SPF)
    49. Compression mode               : Lossy
    50. Stream size                    : 66.5 MiB (6%)
    51. Language                       : English
    52. Default                        : No
    53. Forced                         : No

    54. Text #1
    55. ID                             : 3
    56. Format                         : UTF-8
    57. Codec ID                       : S_TEXT/UTF8
    58. Codec ID/Info                  : UTF-8 Plain Text
    59. Duration                       : 47 min 45 s
    60. Bit rate                       : 65 b/s
    61. Count of elements              : 497
    62. Stream size                    : 23.0 KiB (0%)
    63. Language                       : Japanese
    64. Default                        : No
    65. Forced                         : No

    66. Text #2
    67. ID                             : 4
    68. Format                         : UTF-8
    69. Codec ID                       : S_TEXT/UTF8
    70. Codec ID/Info                  : UTF-8 Plain Text
    71. Duration                       : 47 min 42 s
    72. Bit rate                       : 45 b/s
    73. Count of elements              : 499
    74. Stream size                    : 16.1 KiB (0%)
    75. Language                       : Chinese
    76. Default                        : Yes
    77. Forced                         : No
    复制代码




    购买主题 已有 1 人购买  本主题需向作者支付 20 大洋 才能浏览
    郑重声明:
    本人提供的所有影视作品均是在网上搜集,任何涉及商业盈利目的均不得使用,否则产生的一切后果将由您自己承担!
    本人不对本人所发布的任何内容负任何法律责任!该下载内容仅做宽带测试使用,请在下载后24小时内删除。请购买正版!
    本人列出的文件没有保存在本站的服务器上,本人仅负责连接,本人对被传播文件的内容一无所知。
    如侵犯视频原作者或发行商版权,请联系本人删除!
    回复

    使用道具 举报

  • TA的每日心情
    开心
    10 小时前
  • 签到天数: 108 天

    [LV.6]常住居民II

    1

    主题

    1084

    帖子

    224

    积分

    高级影迷

    Rank: 4

    积分
    224
    发表于 5 天前 | 显示全部楼层
    谢谢楼主分享
    回复

    使用道具 举报

  • TA的每日心情
    开心
    1 小时前
  • 签到天数: 113 天

    [LV.6]常住居民II

    14

    主题

    1269

    帖子

    119

    积分

    中级影迷

    Rank: 3Rank: 3

    积分
    119
    发表于 5 天前 | 显示全部楼层
    感谢分享经典电视剧
    回复

    使用道具 举报

  • TA的每日心情
    开心
    4 小时前
  • 签到天数: 81 天

    [LV.6]常住居民II

    1

    主题

    885

    帖子

    166

    积分

    高级影迷

    Rank: 4

    积分
    166
    发表于 5 天前 | 显示全部楼层
    感谢分享!
    回复

    使用道具 举报

  • TA的每日心情
    郁闷
    28 分钟前
  • 签到天数: 55 天

    [LV.5]常住居民I

    4

    主题

    590

    帖子

    182

    积分

    高级影迷

    Rank: 4

    积分
    182
    发表于 5 天前 | 显示全部楼层
    感谢分享!
    回复

    使用道具 举报

  • TA的每日心情
    奋斗
    3 小时前
  • 签到天数: 534 天

    [LV.9]以坛为家II

    38

    主题

    6097

    帖子

    806

    积分

    资深影迷

    Rank: 10Rank: 10Rank: 10

    积分
    806
    发表于 5 天前 | 显示全部楼层
    很不错!谢谢分享。
    回复

    使用道具 举报

  • TA的每日心情
    开心
    4 小时前
  • 签到天数: 61 天

    [LV.6]常住居民II

    1

    主题

    529

    帖子

    159

    积分

    高级影迷

    Rank: 4

    积分
    159
    发表于 5 天前 | 显示全部楼层
    感谢楼主分享!
    回复

    使用道具 举报

  • TA的每日心情
    开心
    昨天 09:26
  • 签到天数: 178 天

    [LV.7]常住居民III

    1

    主题

    1662

    帖子

    115

    积分

    中级影迷

    Rank: 3Rank: 3

    积分
    115
    发表于 5 天前 | 显示全部楼层
    多谢分享!
    回复

    使用道具 举报

  • TA的每日心情
    奋斗
    昨天 13:31
  • 签到天数: 160 天

    [LV.7]常住居民III

    5

    主题

    740

    帖子

    47

    积分

    初级影迷

    Rank: 2

    积分
    47
    发表于 4 天前 | 显示全部楼层
    感谢分享      
    回复

    使用道具 举报

  • TA的每日心情
    慵懒
    昨天 17:25
  • 签到天数: 34 天

    [LV.5]常住居民I

    4

    主题

    81

    帖子

    52

    积分

    初级影迷

    Rank: 2

    积分
    52
    发表于 4 天前 | 显示全部楼层
    本帖最后由 TAYTAYLOR13 于 2020-10-16 02:41 编辑

    辛苦啦!
    回复

    使用道具 举报

    您需要登录后才可以回帖 登录 | 立即注册

    本版积分规则

    QQ|Archiver|手机版|小黑屋|影迷乐园

    GMT+8, 2020-10-20 10:58 , Processed in 0.191500 second(s), 28 queries .

    Powered by Discuz! X3.4

    Copyright © 2001-2020, Tencent Cloud.

    快速回复 返回顶部 返回列表