请选择 进入手机版 | 继续访问电脑版

YMLY-影迷乐园-特效字幕 蓝光原盘 1080P 高清动漫电影电视剧

 找回密码
 立即注册
搜索
查看: 115|回复: 9

[香港] [百度][2006][576P][香港奇案实录][粤语中字][陈啟泰.张文慈][25集全][TS][37.77GB][本港台]

[复制链接]
  • TA的每日心情
    奋斗
    2020-2-21 00:36
  • 签到天数: 656 天

    [LV.9]以坛为家II

    7725

    主题

    9686

    帖子

    5万

    积分

    超级版主

    与齐同行,是最初的梦想,也是一辈子的执着~

    Rank: 16Rank: 16Rank: 16Rank: 16

    积分
    58498

    内测勋章最佳新人十二生肖之猴VIP包月勋章影迷男神小土豪勋章土豪勋章富甲一方精华勋章金话筒主题达人灌水之王

    发表于 4 天前 | 显示全部楼层 |阅读模式
    下载说明:

    百度网盘分享极其不稳定,如有链接失效,请第一时间站内短消息通知我,上线后会第一时间补发!请大家多多谅解!电驴链接只能115会员离线下载,其它工具都下载不了!




    ◎译  名 Hong Kong Special Cases
    ◎片  名 香港奇案实录
    ◎年  代 2006
    ◎产  地 中国香港
    ◎类  别 剧情 / 犯罪
    ◎语  言 粤语
    ◎上映日期 2006(中国香港)
    ◎IMDb链接  https://www.imdb.com/title/tt0131105
    ◎豆瓣评分 6.5/10 from 443 users
    ◎豆瓣链接 https://movie.douban.com/subject/2377790/
    ◎集  数 25
    ◎片  长 45分钟
    ◎导  演 刘国辉 Kwok Fai Lau
    ◎编  剧 沈立强 Lap-Keung Shum
    ◎主  演 陈启泰 Kenneth Chan
           张文慈 Pinky Cheung
           张豪龙 Ho Lung Cheung
           江美仪 Elena Kong
           林韦辰 Wai-Sun Lam
           高雄 Eddy Ko
           张智尧 Kennth Chang
           文诗琪 Yoki Man
           庄欣玲 Chong Yan-Ling
           秦启维 Chun Kai Wai
           陈保元 Ricky Chan Po-Yuen
           谭凯琪 Zoie Tam
           黄子雄 Geoffrey Wong Chi-Hung
           郭家颐 Kylie Kwok


    ◎标  签 香港 | ATV | 犯罪 | 港剧 | 香港奇案实录 | 惊悚 | 电视剧 | TVB

    ◎简  介  

      『真的力量 就在亚洲』,2005年,亚洲电视创作的重案实况剧集《危险人物》,收视与口碑同样创下骄人佳绩,成绩令人鼓舞。踏入2006年,亚洲电视再次掀起『奇案系列』的热潮,集合台前幕后的精英,倾全力製作《香港奇案实录》,演员阵容鼎盛,如陈啟泰、张文慈、张豪龙、江美仪、林韦辰、林燁、杨天经、袁文杰、吴亭欣、陈宝辕、杜挺豪、郭家颐、林伟、八两金、黄子雄、何彦樺、宝珮如等施尽浑身解数演出精彩。本剧将破天荒结合新闻片段,将多件轰动一时的重案,以实录式拍摄手法,重新展示在观眾眼前,并带出天网恢恢,罪犯最终难逃法网,得到应有惩罚的正确观念,相信定能再创收视佳绩。《香港奇案实录》将重整惊人重案,包括:『雨夜狂屠』、『重装悍匪』、『老千计死人财』、『屋村狂父斩头』、『WTO危城六日』、『五尸离奇命案』等,箇中案情曲拆离奇,当中更涉及香港青少年及社会问题,希望观眾看后,可以更关注发生在我们身边的问题,引以为鑑,更关心社会及身边的人。
    1. General
    2. ID                             : 1 (0x1)
    3. Format                         : MPEG-TS
    4. File size                      : 1.51 GiB
    5. Duration                       : 42 min 21 s
    6. Overall bit rate mode          : Variable
    7. Overall bit rate               : 5 097 kb/s

    8. Video
    9. ID                             : 111 (0x6F)
    10. Menu ID                        : 11 (0xB)
    11. Format                         : AVC
    12. Format/Info                    : Advanced Video Codec
    13. Format profile                 : Main@L3
    14. Format settings                : CABAC / 4 Ref Frames
    15. Format settings, CABAC         : Yes
    16. Format settings, Reference fra : 4 frames
    17. Format settings, GOP           : M=4, N=12
    18. Codec ID                       : 27
    19. Duration                       : 42 min 21 s
    20. Bit rate                       : 4 458 kb/s
    21. Maximum bit rate               : 4 598 kb/s
    22. Width                          : 720 pixels
    23. Height                         : 576 pixels
    24. Display aspect ratio           : 16:9
    25. Frame rate                     : 25.000 FPS
    26. Standard                       : PAL
    27. Color space                    : YUV
    28. Chroma subsampling             : 4:2:0
    29. Bit depth                      : 8 bits
    30. Scan type                      : Interlaced
    31. Scan type, store method        : Separated fields
    32. Scan order                     : Top Field First
    33. Bits/(Pixel*Frame)             : 0.430
    34. Stream size                    : 1.32 GiB (87%)
    35. Color range                    : Full
    36. Color primaries                : BT.601 PAL
    37. Transfer characteristics       : BT.470 System B/G
    38. Matrix coefficients            : BT.470 System B/G

    39. Audio #1
    40. ID                             : 112 (0x70)
    41. Menu ID                        : 11 (0xB)
    42. Format                         : AC-3
    43. Format/Info                    : Audio Coding 3
    44. Commercial name                : Dolby Digital
    45. Codec ID                       : 6
    46. Duration                       : 42 min 21 s
    47. Bit rate mode                  : Constant
    48. Bit rate                       : 192 kb/s
    49. Maximum bit rate               : 202 kb/s
    50. Channel(s)                     : 2 channels
    51. Channel layout                 : L R
    52. Sampling rate                  : 48.0 kHz
    53. Frame rate                     : 31.250 FPS (1536 SPF)
    54. Bit depth                      : 16 bits
    55. Compression mode               : Lossy
    56. Delay relative to video        : -9 ms
    57. Stream size                    : 58.2 MiB (4%)
    58. Service kind                   : Complete Main

    59. Audio #2
    60. ID                             : 113 (0x71)
    61. Menu ID                        : 11 (0xB)
    62. Format                         : AC-3
    63. Format/Info                    : Audio Coding 3
    64. Commercial name                : Dolby Digital
    65. Codec ID                       : 6
    66. Duration                       : 42 min 21 s
    67. Bit rate mode                  : Constant
    68. Bit rate                       : 192 kb/s
    69. Maximum bit rate               : 202 kb/s
    70. Channel(s)                     : 2 channels
    71. Channel layout                 : L R
    72. Sampling rate                  : 48.0 kHz
    73. Frame rate                     : 31.250 FPS (1536 SPF)
    74. Bit depth                      : 16 bits
    75. Compression mode               : Lossy
    76. Delay relative to video        : -1 ms
    77. Stream size                    : 58.2 MiB (4%)
    78. Service kind                   : Complete Main

    79. Text #1
    80. ID                             : 114 (0x72)
    81. Menu ID                        : 11 (0xB)
    82. Format                         : DVB Subtitle
    83. Codec ID                       : 6
    84. Maximum bit rate               : 51.2 kb/s
    85. Language                       : Chinese / chs

    86. Text #2
    87. ID                             : 115 (0x73)
    88. Menu ID                        : 11 (0xB)
    89. Format                         : DVB Subtitle
    90. Codec ID                       : 6
    91. Maximum bit rate               : 51.2 kb/s
    92. Language                       : English

    93. Menu
    94. ID                             : 110 (0x6E)
    95. Menu ID                        : 11 (0xB)
    96. Duration                       : 42 min 21 s
    97. List                           : 111 (0x6F) (AVC) / 112 (0x70) (AC-3) / 113 (0x71) (AC-3) / 114 (0x72) (DVB Subtitle, Chinese / chs) / 115 (0x73) (DVB Subtitle, English)
    98. Language                       :  /  /  / Chinese / chs / English
    99. Maximum bit rate               : 5102800
    复制代码





    购买主题 本主题需向作者支付 30 大洋 才能浏览
    郑重声明:
    本人提供的所有影视作品均是在网上搜集,任何涉及商业盈利目的均不得使用,否则产生的一切后果将由您自己承担!
    本人不对本人所发布的任何内容负任何法律责任!该下载内容仅做宽带测试使用,请在下载后24小时内删除。请购买正版!
    本人列出的文件没有保存在本站的服务器上,本人仅负责连接,本人对被传播文件的内容一无所知。
    如侵犯视频原作者或发行商版权,请联系本人删除!
    回复

    使用道具 举报

  • TA的每日心情
    慵懒
    3 小时前
  • 签到天数: 137 天

    [LV.7]常住居民III

    4

    主题

    882

    帖子

    100

    积分

    中级影迷

    Rank: 3Rank: 3

    积分
    100
    发表于 4 天前 | 显示全部楼层
    谢谢分享!
    回复

    使用道具 举报

  • TA的每日心情
    郁闷
    1 小时前
  • 签到天数: 55 天

    [LV.5]常住居民I

    4

    主题

    591

    帖子

    182

    积分

    高级影迷

    Rank: 4

    积分
    182
    发表于 4 天前 | 显示全部楼层
    谢谢分享!
    回复

    使用道具 举报

  • TA的每日心情
    开心
    5 小时前
  • 签到天数: 61 天

    [LV.6]常住居民II

    1

    主题

    529

    帖子

    159

    积分

    高级影迷

    Rank: 4

    积分
    159
    发表于 4 天前 | 显示全部楼层
    谢谢楼主分享
    回复

    使用道具 举报

  • TA的每日心情
    开心
    5 小时前
  • 签到天数: 81 天

    [LV.6]常住居民II

    1

    主题

    885

    帖子

    166

    积分

    高级影迷

    Rank: 4

    积分
    166
    发表于 4 天前 | 显示全部楼层
    感谢分享!
    回复

    使用道具 举报

  • TA的每日心情
    开心
    11 小时前
  • 签到天数: 108 天

    [LV.6]常住居民II

    1

    主题

    1084

    帖子

    224

    积分

    高级影迷

    Rank: 4

    积分
    224
    发表于 4 天前 | 显示全部楼层
    谢谢楼主分享
    回复

    使用道具 举报

  • TA的每日心情

    3 小时前
  • 签到天数: 194 天

    [LV.7]常住居民III

    3

    主题

    867

    帖子

    218

    积分

    高级影迷

    Rank: 4

    积分
    218
    发表于 4 天前 | 显示全部楼层
    感谢分享!
    回复

    使用道具 举报

  • TA的每日心情
    擦汗
    4 小时前
  • 签到天数: 47 天

    [LV.5]常住居民I

    2

    主题

    467

    帖子

    39

    积分

    初级影迷

    Rank: 2

    积分
    39
    发表于 4 天前 | 显示全部楼层
    恐怖么啊感觉啊
    回复

    使用道具 举报

  • TA的每日心情
    奋斗
    2 小时前
  • 签到天数: 70 天

    [LV.6]常住居民II

    1

    主题

    826

    帖子

    68

    积分

    初级影迷

    Rank: 2

    积分
    68
    发表于 3 天前 | 显示全部楼层
    谢谢分享!
    回复

    使用道具 举报

  • TA的每日心情
    难过
    昨天 15:14
  • 签到天数: 84 天

    [LV.6]常住居民II

    4

    主题

    1012

    帖子

    90

    积分

    中级影迷

    Rank: 3Rank: 3

    积分
    90
    发表于 3 天前 | 显示全部楼层
    感谢分享!
    回复

    使用道具 举报

    您需要登录后才可以回帖 登录 | 立即注册

    本版积分规则

    QQ|Archiver|手机版|小黑屋|影迷乐园

    GMT+8, 2020-10-20 11:57 , Processed in 0.097729 second(s), 28 queries .

    Powered by Discuz! X3.4

    Copyright © 2001-2020, Tencent Cloud.

    快速回复 返回顶部 返回列表