请选择 进入手机版 | 继续访问电脑版

YMLY-影迷乐园-特效字幕 蓝光原盘 1080P 高清动漫电影电视剧

 找回密码
 立即注册
搜索
查看: 163|回复: 14

[台湾] [百度][2007][4K.2160P][公主小妹][国语中字][张韶涵.吴尊][20集全][MP4][22.67GB]

[复制链接]
  • TA的每日心情
    奋斗
    2020-2-21 00:36
  • 签到天数: 656 天

    [LV.9]以坛为家II

    7814

    主题

    9808

    帖子

    5万

    积分

    超级版主

    与齐同行,是最初的梦想,也是一辈子的执着~

    Rank: 16Rank: 16Rank: 16Rank: 16

    积分
    55691

    内测勋章最佳新人十二生肖之猴VIP包月勋章影迷男神小土豪勋章土豪勋章富甲一方精华勋章金话筒主题达人灌水之王

    发表于 2020-10-16 07:48:59 | 显示全部楼层 |阅读模式
    下载说明:

    百度网盘分享极其不稳定,如有链接失效,请第一时间站内短消息通知我,上线后会第一时间补发!请大家多多谅解!电驴链接只能115会员离线下载,其它工具都下载不了!




    ◎译  名 Romantic Princess / 我家公主
    ◎片  名 公主小妹
    ◎年  代 2007
    ◎产  地 中国台湾
    ◎类  别 喜剧 / 爱情
    ◎语  言 汉语普通话
    ◎上映日期 2007-09-16(中国台湾) / 2008-08-02(中国大陆)
    ◎IMDb评分  6.2/10 from 71 users
    ◎IMDb链接  https://www.imdb.com/title/tt2973902
    ◎豆瓣评分 6.0/10 from 41043 users
    ◎豆瓣链接 https://movie.douban.com/subject/2249496/
    ◎集  数 13
    ◎片  长 65分钟
    ◎导  演 林合隆 Helong Lin
    ◎编  剧 齐锡麟 Xilin Qi
    ◎主  演 张韶涵 Angela Chang
           吴尊 Chun Wu
           顾宝明 Bao-ming Gu
           辰亦儒 Calvin
           胡宇崴 George Hu
           卓文萱 Genie Cho
           夏靖庭  Ching-ting Hsia


    ◎标  签 台剧 | 偶像剧 | 台湾 | 爱情 | 青春 | 飞轮海 | 喜剧 | 2007

    ◎简  介  

      麦秋穗(张韶涵 饰)本来过着平凡而幸福的生活,家里虽然不是很富裕,但是一家人生活得开开心心,她对现在的生活十分满意。然而一天早上,当秋穗一觉醒来,她的生活发生了天翻地覆的变化。一大帮貌似黑社会的黑衣人来到秋穗的公寓,宣称她就是首富皇甫集团董事长皇甫雄(顾宝明 饰)失踪多年的孙女,而父亲母亲也承认了秋穗并非他们的亲生女儿。惊愕不已的秋穗在爷爷皇甫雄的要求下搬进了皇甫大宅。
      秋穗的到来使得本来即将继承皇甫雄事业的大少爷南风瑾(吴尊 饰)大为紧张,加上旁人说三道四,于是大家都认为秋穗是回来抢家产的拜金女。而秋穗也并非任人欺负之辈,两人第一次见面就势成水火,针锋相对。而皇甫雄竟然想撮合南风瑾与秋穗,处处制造机会让二人独处。于是,秋穗的麻烦大了。
    1. General
    2. Format                         : MPEG-4
    3. Format profile                 : Base Media
    4. Codec ID                       : isom (isom/iso2/mp41)
    5. File size                      : 1.08 GiB
    6. Duration                       : 44 min 54 s
    7. Overall bit rate mode          : Variable
    8. Overall bit rate               : 3 429 kb/s
    9. Writing application            : Lavf58.12.100

    10. Video
    11. ID                             : 1
    12. Format                         : HEVC
    13. Format/Info                    : High Efficiency Video Coding
    14. Format profile                 : Main@L5@Main
    15. Codec ID                       : hev1
    16. Codec ID/Info                  : High Efficiency Video Coding
    17. Duration                       : 44 min 54 s
    18. Bit rate                       : 3 292 kb/s
    19. Width                          : 3 840 pixels
    20. Height                         : 2 160 pixels
    21. Display aspect ratio           : 16:9
    22. Frame rate mode                : Variable
    23. Frame rate                     : 29.970 (29970/1000) FPS
    24. Minimum frame rate             : 29.960 FPS
    25. Maximum frame rate             : 29.980 FPS
    26. Color space                    : YUV
    27. Chroma subsampling             : 4:2:0
    28. Bit depth                      : 8 bits
    29. Bits/(Pixel*Frame)             : 0.013
    30. Stream size                    : 1.03 GiB (96%)
    31. Codec configuration box        : hvcC

    32. Audio
    33. ID                             : 2
    34. Format                         : AAC LC
    35. Format/Info                    : Advanced Audio Codec Low Complexity
    36. Codec ID                       : mp4a-40-2
    37. Duration                       : 44 min 54 s
    38. Bit rate mode                  : Variable
    39. Bit rate                       : 128 kb/s
    40. Maximum bit rate               : 132 kb/s
    41. Channel(s)                     : 2 channels
    42. Channel layout                 : L R
    43. Sampling rate                  : 48.0 kHz
    44. Frame rate                     : 46.875 FPS (1024 SPF)
    45. Compression mode               : Lossy
    46. Stream size                    : 41.1 MiB (4%)
    47. Default                        : Yes
    48. Alternate group                : 1
    复制代码




    购买主题 已有 4 人购买  本主题需向作者支付 30 大洋 才能浏览
    郑重声明:
    本人提供的所有影视作品均是在网上搜集,任何涉及商业盈利目的均不得使用,否则产生的一切后果将由您自己承担!
    本人不对本人所发布的任何内容负任何法律责任!该下载内容仅做宽带测试使用,请在下载后24小时内删除。请购买正版!
    本人列出的文件没有保存在本站的服务器上,本人仅负责连接,本人对被传播文件的内容一无所知。
    如侵犯视频原作者或发行商版权,请联系本人删除!
    回复

    使用道具 举报

  • TA的每日心情
    慵懒
    11 小时前
  • 签到天数: 145 天

    [LV.7]常住居民III

    4

    主题

    912

    帖子

    116

    积分

    中级影迷

    Rank: 3Rank: 3

    积分
    116
    发表于 2020-10-16 08:41:15 | 显示全部楼层
    谢谢分享!
    回复

    使用道具 举报

  • TA的每日心情
    奋斗
    昨天 09:22
  • 签到天数: 62 天

    [LV.6]常住居民II

    5

    主题

    660

    帖子

    221

    积分

    高级影迷

    Rank: 4

    积分
    221
    发表于 2020-10-16 09:41:37 | 显示全部楼层
    谢谢分享!
    回复

    使用道具 举报

  • TA的每日心情
    开心
    20 小时前
  • 签到天数: 68 天

    [LV.6]常住居民II

    2

    主题

    615

    帖子

    201

    积分

    高级影迷

    Rank: 4

    积分
    201

    小土豪勋章

    发表于 2020-10-16 10:32:00 | 显示全部楼层
    谢谢楼主分享
    回复

    使用道具 举报

  • TA的每日心情
    开心
    12 小时前
  • 签到天数: 10 天

    [LV.3]偶尔看看II

    0

    主题

    15

    帖子

    29

    积分

    初级影迷

    Rank: 2

    积分
    29
    发表于 2020-10-16 11:00:22 | 显示全部楼层
    感谢楼主分享!
    回复

    使用道具 举报

  • TA的每日心情
    开心
    13 小时前
  • 签到天数: 88 天

    [LV.6]常住居民II

    1

    主题

    967

    帖子

    187

    积分

    高级影迷

    Rank: 4

    积分
    187
    发表于 2020-10-16 11:26:42 | 显示全部楼层
    感谢分享!
    回复

    使用道具 举报

  • TA的每日心情
    开心
    14 小时前
  • 签到天数: 115 天

    [LV.6]常住居民II

    1

    主题

    1164

    帖子

    239

    积分

    高级影迷

    Rank: 4

    积分
    239
    发表于 2020-10-16 12:47:07 | 显示全部楼层
    谢谢楼主分享
    回复

    使用道具 举报

  • TA的每日心情

    8 小时前
  • 签到天数: 200 天

    [LV.7]常住居民III

    3

    主题

    925

    帖子

    233

    积分

    高级影迷

    Rank: 4

    积分
    233
    发表于 2020-10-16 13:35:09 | 显示全部楼层
    感谢分享!
    回复

    使用道具 举报

  • TA的每日心情
    开心
    12 小时前
  • 签到天数: 16 天

    [LV.4]偶尔看看III

    0

    主题

    223

    帖子

    13

    积分

    入门影迷

    Rank: 1

    积分
    13
    发表于 2020-10-16 18:38:46 | 显示全部楼层
    感谢分享!
    回复

    使用道具 举报

  • TA的每日心情
    开心
    2 小时前
  • 签到天数: 56 天

    [LV.5]常住居民I

    0

    主题

    83

    帖子

    28

    积分

    初级影迷

    Rank: 2

    积分
    28
    发表于 2020-10-16 20:17:08 | 显示全部楼层
    谢谢分享
    回复

    使用道具 举报

    您需要登录后才可以回帖 登录 | 立即注册

    本版积分规则

    QQ|Archiver|手机版|小黑屋|影迷乐园

    GMT+8, 2020-10-29 21:03 , Processed in 0.066630 second(s), 28 queries .

    Powered by Discuz! X3.4

    Copyright © 2001-2020, Tencent Cloud.

    快速回复 返回顶部 返回列表