请选择 进入手机版 | 继续访问电脑版

YMLY-影迷乐园-特效字幕 蓝光原盘 1080P 高清动漫电影电视剧

 找回密码
 立即注册
搜索
查看: 394|回复: 20

[美国] [115+百度][2020][4K.2160P][曼达洛人S02.第二季][中英字幕][更至3集][MKV][2.79GB][Mandalorian.S02.Chapter.10.2160p.WEB-DL.DDP5.1.HDR.x265.10bit-Yumi@FRDS]

[复制链接]
  • TA的每日心情
    奋斗
    2020-2-21 00:36
  • 签到天数: 656 天

    [LV.9]以坛为家II

    8125

    主题

    1万

    帖子

    6万

    积分

    超级版主

    与齐同行,是最初的梦想,也是一辈子的执着~

    Rank: 16Rank: 16Rank: 16Rank: 16

    积分
    62684

    内测勋章最佳新人十二生肖之猴VIP包月勋章影迷男神小土豪勋章土豪勋章富甲一方精华勋章金话筒主题达人灌水之王

    发表于 2020-11-8 11:09:05 | 显示全部楼层 |阅读模式
    下载说明:

    百度云网盘分享极其不稳定,如有链接失效,请第一时间站内短消息通知我,上线后会第一时间补发!请大家多多谅解!电驴链接只能115会员离线下载,其它工具都下载不了!


    ----转载自FRDS,感谢压制和原发布人员,特此鸣谢!----



    ◎译  名 曼达洛人 第二季/Star Wars: The Mandalorian/星球大战:曼达洛人
    ◎片  名 The Mandalorian Season 2
    ◎年  代 2020
    ◎产  地 美国
    ◎类  别 动作 / 科幻 / 冒险
    ◎语  言 英语
    ◎上映日期 2020-10-30(美国)
    ◎IMDb评分  9.1/10 from 9347 users
    ◎IMDb链接  https://www.imdb.com/title/tt11150494/
    ◎豆瓣评分 9.7/10 from 6050 users
    ◎豆瓣链接 https://movie.douban.com/subject/34892527/
    ◎集  数 8
    ◎片  长 30分钟
    ◎导  演 乔恩·费儒 Jon Favreau / 塔伊加·维迪提 Taika Waititi / 布莱丝·达拉斯·霍华德 Bryce Dallas Howard / 戴夫·菲洛尼 Dave Filoni / 瑞克·法穆易瓦 Rick Famuyiwa / 卡尔·韦瑟斯 Carl Weathers / 佩顿·里德 Peyton Reed / 罗伯特·罗德里格兹 Robert Rodriguez
    ◎编  剧 乔恩·费儒 Jon Favreau / 戴夫·菲洛尼 Dave Filoni / 克里斯托弗·约斯特 Christopher Yost / 瑞克·法穆易瓦 Rick Famuyiwa
    ◎主  演 佩德罗·帕斯卡 Pedro Pascal
           吉娜·卡拉诺 Gina Carano
           卡尔·韦瑟斯 Carl Weathers
           吉安卡罗·埃斯波西托 Giancarlo Esposito
           沃纳·赫尔佐格 Werner Herzog
           霍拉提奥·桑斯 Horatio Sanz
           布伦丹·维恩 Brendan Wayne
           奥米德·阿布塔西 Omid Abtahi
           蒂莫西·奥利芬特 Timothy Olyphant
           布莱恩·波塞恩 Brian Posehn
           乔恩·费儒 Jon Favreau
           温明娜 Ming-Na Wen
           艾米莉·斯沃洛 Emily Swallow
           塔伊加·维迪提 Taika Waititi
           尼克·诺特 Nick Nolte
           多米尼克·培斯 Dominic Pace
           罗莎里奥·道森 Rosario Dawson
           迈克尔·比恩 Michael Biehn
           比尔·伯尔 Bill Burr
           特穆拉·莫里森 Temuera Morrison
           凯缇·萨克霍夫 Katee Sackhoff
           茱莉亚·琼斯 Julia Jones
           艾米·塞德丽丝 Amy Sedaris
           杰克·坎纳瓦尔 Jake Cannavale
           小马克·布恩 Mark Boone Junior

    ◎标  签 星球大战 | 科幻 | 美剧 | StarWars | 2020 | 迪士尼 | Disney+ | 美国

    ◎简  介

      星战宇宙的首部真人剧,故事时间线设置在帝国陷落之后,一位孤胆枪手奋战于远离新共和国治理的银河偏远行星带。第二季中,我们的主角曼达洛人将继续与“尤达宝宝”一同在银河系内冒险,等待他们的将是更加危险的敌人。
    1. General
    2. Unique ID                      : 235721871532270841726515960182602472699 (0xB156618F5141E421AE33939E297C1CFB)
    3. Format                         : Matroska
    4. Format version                 : Version 4
    5. File size                      : 1.15 GiB
    6. Duration                       : 39 min 35 s
    7. Overall bit rate               : 4 153 kb/s
    8. Encoded date                   : UTC 2020-11-08 02:01:20
    9. Writing application            : mkvmerge v9.9.0 ('Pick Up') 64bit
    10. Writing library                : libebml v1.3.4 + libmatroska v1.4.5

    11. Video
    12. ID                             : 3
    13. Format                         : HEVC
    14. Format/Info                    : High Efficiency Video Coding
    15. Format profile                 : Main 10@L5.1@High
    16. HDR format                     : SMPTE ST 2086, HDR10 compatible
    17. Codec ID                       : V_MPEGH/ISO/HEVC
    18. Duration                       : 39 min 32 s
    19. Bit rate                       : 3 388 kb/s
    20. Width                          : 3 840 pixels
    21. Height                         : 2 160 pixels
    22. Display aspect ratio           : 16:9
    23. Frame rate mode                : Constant
    24. Frame rate                     : 23.976 (24000/1001) FPS
    25. Color space                    : YUV
    26. Chroma subsampling             : 4:2:0
    27. Bit depth                      : 10 bits
    28. Bits/(Pixel*Frame)             : 0.017
    29. Stream size                    : 958 MiB (81%)
    30. Writing library                : x265 3.1.1+1-04b37fdfd2dc:[Windows][GCC 5.4.0][64 bit] 10bit
    31. Encoding settings              : cpuid=1111039 / frame-threads=4 / numa-pools=6 / wpp / no-pmode / no-pme / no-psnr / no-ssim / log-level=2 / input-csp=1 / input-res=3840x2160 / interlace=0 / total-frames=0 / level-idc=51 / high-tier=1 / uhd-bd=0 / ref=3 / no-allow-non-conformance / repeat-headers / annexb / no-aud / no-hrd / info / hash=0 / no-temporal-layers / open-gop / min-keyint=24 / keyint=240 / gop-lookahead=0 / bframes=4 / b-adapt=2 / b-pyramid / bframe-bias=0 / rc-lookahead=20 / lookahead-slices=8 / scenecut=40 / radl=0 / no-splice / no-intra-refresh / ctu=64 / min-cu-size=8 / no-rect / no-amp / max-tu-size=32 / tu-inter-depth=1 / tu-intra-depth=1 / limit-tu=0 / rdoq-level=0 / dynamic-rd=0.00 / no-ssim-rd / signhide / no-tskip / nr-intra=0 / nr-inter=0 / no-constrained-intra / strong-intra-smoothing / max-merge=3 / limit-refs=1 / no-limit-modes / me=1 / subme=2 / merange=57 / temporal-mvp / weightp / no-weightb / no-analyze-src-pics / deblock=0:0 / sao / no-sao-non-deblock / rd=3 / early-skip / rskip / no-fast-intra / no-tskip-fast / no-cu-lossless / b-intra / no-splitrd-skip / rdpenalty=0 / psy-rd=0.00 / psy-rdoq=0.00 / no-rd-refine / no-lossless / cbqpoffs=0 / crqpoffs=0 / rc=crf / crf=19.0 / qcomp=0.60 / qpstep=4 / stats-write=0 / stats-read=0 / vbv-maxrate=160000 / vbv-bufsize=160000 / vbv-init=0.9 / crf-max=0.0 / crf-min=0.0 / ipratio=1.40 / pbratio=1.30 / aq-mode=2 / aq-strength=1.00 / cutree / zone-count=0 / no-strict-cbr / qg-size=32 / no-rc-grain / qpmax=69 / qpmin=0 / no-const-vbv / sar=1 / overscan=0 / videoformat=5 / range=0 / colorprim=9 / transfer=16 / colormatrix=9 / chromaloc=0 / display-window=0 / master-display=G(13250,34500)B(7500,3000)R(34000,16000)WP(15635,16450)L(40000000,100)cll=3995,2345 / min-luma=0 / max-luma=1023 / log2-max-poc-lsb=8 / vui-timing-info / vui-hrd-info / slices=1 / no-opt-qp-pps / no-opt-ref-list-length-pps / no-multi-pass-opt-rps / scenecut-bias=0.05 / no-opt-cu-delta-qp / no-aq-motion / hdr / no-hdr-opt / no-dhdr10-opt / no-idr-recovery-sei / analysis-reuse-level=5 / scale-factor=0 / refine-intra=0 / refine-inter=0 / refine-mv=0 / refine-ctu-distortion=0 / no-limit-sao / ctu-info=0 / no-lowpass-dct / refine-analysis-type=-1151101685 / copy-pic=1 / max-ausize-factor=1.0 / no-dynamic-refine / no-single-sei / no-hevc-aq / no-svt / no-field / qp-adaptation-range=1.00
    32. Default                        : Yes
    33. Forced                         : No
    34. Color range                    : Limited
    35. Color primaries                : BT.2020
    36. Transfer characteristics       : PQ
    37. Matrix coefficients            : BT.2020 non-constant
    38. Mastering display color primar : Display P3
    39. Mastering display luminance    : min: 0.0100 cd/m2, max: 4000 cd/m2
    40. Maximum Content Light Level    : 3995 cd/m2
    41. Maximum Frame-Average Light Le : 2345 cd/m2

    42. Audio
    43. ID                             : 1
    44. Format                         : E-AC-3 JOC
    45. Format/Info                    : Enhanced AC-3 with Joint Object Coding
    46. Commercial name                : Dolby Digital Plus with Dolby Atmos
    47. Codec ID                       : A_EAC3
    48. Duration                       : 39 min 35 s
    49. Bit rate mode                  : Constant
    50. Bit rate                       : 768 kb/s
    51. Channel(s)                     : 6 channels
    52. Channel layout                 : L R C LFE Ls Rs
    53. Sampling rate                  : 48.0 kHz
    54. Frame rate                     : 31.250 FPS (1536 SPF)
    55. Compression mode               : Lossy
    56. Stream size                    : 218 MiB (18%)
    57. Title                          : English
    58. Language                       : English
    59. Service kind                   : Complete Main
    60. Default                        : Yes
    61. Forced                         : No
    62. Complexity index               : 16
    63. Number of dynamic objects      : 15
    64. Bed channel count              : 1 channel
    65. Bed channel configuration      : LFE

    66. Text #1
    67. ID                             : 2
    68. Format                         : UTF-8
    69. Codec ID                       : S_TEXT/UTF8
    70. Codec ID/Info                  : UTF-8 Plain Text
    71. Duration                       : 36 min 29 s
    72. Bit rate                       : 39 b/s
    73. Count of elements              : 315
    74. Stream size                    : 10.6 KiB (0%)
    75. Title                          : English [SDH]
    76. Language                       : English
    77. Default                        : No
    78. Forced                         : No

    79. Text #2
    80. ID                             : 4
    81. Format                         : ASS
    82. Codec ID                       : S_TEXT/ASS
    83. Codec ID/Info                  : Advanced Sub Station Alpha
    84. Duration                       : 36 min 12 s
    85. Bit rate                       : 177 b/s
    86. Count of elements              : 226
    87. Compression mode               : Lossless
    88. Stream size                    : 47.1 KiB (0%)
    89. Language                       : Chinese
    90. Default                        : Yes
    91. Forced                         : Yes
    复制代码






    购买主题 已有 13 人购买  本主题需向作者支付 30 大洋 才能浏览
    郑重声明:
    本人提供的所有影视作品均是在网上搜集,任何涉及商业盈利目的均不得使用,否则产生的一切后果将由您自己承担!
    本人不对本人所发布的任何内容负任何法律责任!该下载内容仅做宽带测试使用,请在下载后24小时内删除。请购买正版!
    本人列出的文件没有保存在本站的服务器上,本人仅负责连接,本人对被传播文件的内容一无所知。
    如侵犯视频原作者或发行商版权,请联系本人删除!
    回复

    使用道具 举报

  • TA的每日心情
    开心
    2 小时前
  • 签到天数: 257 天

    [LV.8]以坛为家I

    27

    主题

    477

    帖子

    165

    积分

    高级影迷

    Rank: 4

    积分
    165
    发表于 2020-11-8 11:22:49 | 显示全部楼层
    感谢楼主分享
    回复

    使用道具 举报

    该用户从未签到

    0

    主题

    9

    帖子

    13

    积分

    入门影迷

    Rank: 1

    积分
    13
    发表于 2020-11-8 13:07:46 | 显示全部楼层
    感谢楼主分享
    回复

    使用道具 举报

  • TA的每日心情
    奋斗
    2 小时前
  • 签到天数: 98 天

    [LV.6]常住居民II

    18

    主题

    1281

    帖子

    144

    积分

    中级影迷

    Rank: 3Rank: 3

    积分
    144

    小土豪勋章十二生肖之蛇双鱼座勋章土豪勋章

    发表于 2020-11-8 13:15:16 | 显示全部楼层
    感谢楼主分享
    回复

    使用道具 举报

  • TA的每日心情
    开心
    2020-9-11 01:56
  • 签到天数: 53 天

    [LV.5]常住居民I

    0

    主题

    1452

    帖子

    128

    积分

    中级影迷

    Rank: 3Rank: 3

    积分
    128
    发表于 2020-11-8 14:48:21 | 显示全部楼层
    谢谢谢谢分享
    回复

    使用道具 举报

  • TA的每日心情
    擦汗
    2020-11-8 15:14
  • 签到天数: 122 天

    [LV.7]常住居民III

    4

    主题

    217

    帖子

    15

    积分

    入门影迷

    Rank: 1

    积分
    15
    发表于 2020-11-8 17:01:28 | 显示全部楼层
    更新的真及时
    回复

    使用道具 举报

  • TA的每日心情
    开心
    2020-11-8 17:02
  • 签到天数: 13 天

    [LV.3]偶尔看看II

    0

    主题

    48

    帖子

    8

    积分

    入门影迷

    Rank: 1

    积分
    8
    发表于 2020-11-8 17:05:55 | 显示全部楼层
    支持支持。支持支持
    回复

    使用道具 举报

  • TA的每日心情
    开心
    2020-11-8 17:02
  • 签到天数: 13 天

    [LV.3]偶尔看看II

    0

    主题

    48

    帖子

    8

    积分

    入门影迷

    Rank: 1

    积分
    8
    发表于 2020-11-8 17:16:11 | 显示全部楼层
    支持支持支持支持
    回复

    使用道具 举报

  • TA的每日心情
    郁闷
    昨天 13:40
  • 签到天数: 115 天

    [LV.6]常住居民II

    4

    主题

    1347

    帖子

    107

    积分

    中级影迷

    Rank: 3Rank: 3

    积分
    107
    发表于 2020-11-8 21:45:39 | 显示全部楼层
    感谢分享!!
    回复

    使用道具 举报

  • TA的每日心情
    开心
    昨天 08:54
  • 签到天数: 45 天

    [LV.5]常住居民I

    2

    主题

    185

    帖子

    237

    积分

    高级影迷

    Rank: 4

    积分
    237
    发表于 2020-11-8 22:40:20 | 显示全部楼层
    是不是后面更新的集都在这个贴里???
    回复

    使用道具 举报

    您需要登录后才可以回帖 登录 | 立即注册

    本版积分规则

    QQ|Archiver|手机版|小黑屋|影迷乐园

    GMT+8, 2020-11-25 02:20 , Processed in 0.068526 second(s), 28 queries .

    Powered by Discuz! X3.4

    Copyright © 2001-2020, Tencent Cloud.

    快速回复 返回顶部 返回列表