请选择 进入手机版 | 继续访问电脑版

YMLY-影迷乐园-特效字幕 蓝光原盘 1080P 高清动漫电影电视剧

 找回密码
 立即注册
搜索
查看: 351|回复: 19

[大陆] [百度][2003][1080P][神医喜来乐][国语内封简中][李保田.杜雨露.沈傲君][35集全][37.4G][Magic.Doctor.Xi.Lai.Le.2003.1080P.WEB-DL.H264.AAC-YMLY]

[复制链接]
  • TA的每日心情

    2020-8-15 07:51
  • 签到天数: 139 天

    [LV.7]常住居民III

    113

    主题

    415

    帖子

    1663

    积分

    ★★发布员★★

    积分
    1663

    最佳新人影迷男神

    发表于 2020-11-10 16:47:29 | 显示全部楼层 |阅读模式


    ◎译  名 Magic Doctor Xi Lai Le
    ◎片  名 神医喜来乐
    ◎年  代 2003
    ◎产  地 中国大陆
    ◎类  别 剧情 / 喜剧 / 传记 / 历史 / 古装
    ◎语  言 汉语普通话
    ◎上映日期 2003-01-22(中国大陆)
    ◎IMDb评分  7.8/10 from 18 users
    ◎IMDb链接  https://www.imdb.com/title/tt4758288/
    ◎豆瓣评分 7.9/10 from 27337 users
    ◎豆瓣链接 https://movie.douban.com/subject/2259830/
    ◎集  数 35
    ◎片  长 46分钟
    ◎导  演 黄力加 Lijia Huang / 江洪 Hong Jiang
    ◎编  剧 周振天 Zhentian Zhou / 汪海林 Hailin Wang / 高大庸 Dayong Gao
    ◎主  演 李保田 Baotian Li
           杜雨露 Yulu Du
           沈傲君 Aojun Shen
           梁丽 Li Liang
           吴军 Jun Wu
           徐连生 Liansheng Xu
           陈继铭 Jiming Chen
           徐爱珉 Aimin Xu
           朱雅娜 Yana Zhu
           李晓波 Xiaobo Li
           陆建艺 Jianyi Lu
           王冲 Chong Wang
           徐爽 Shuang Xu
           杜旭东 Xudong Du

    ◎标  签 电视剧 | 国产电视剧 | 李保田 | 古装 | 神医喜来乐 | 沈傲君 | 大陆 | 中国

    ◎简  介

      本故事发生在清朝末年,靖王爷(徐连升 饰)为救爱女(朱亚娜 饰)性命,不得不病急乱投医,找来了沧州的乡下郎中喜来乐(李保田 饰)。没想到被宫里太医王天和(杜雨露 饰)断为绝症的格格,喜来乐竟用奇招救活。喜来乐本是与世无争,根本不想留在京城这个是非之地,但天意弄人,靖王爷不但用计把他留下,更是把他全家老小和沧州的“一笑堂”搬来京城。从此一向目中无人的王太医就与喜来乐结下了梁子,屡屡对喜来乐暗下毒手。命大的喜来乐不仅每每躲过暗算,更是凭借自创的偏方怪招在京城获得了神医的名号。靖王爷为了让喜来乐安心留在京城,更是把他在沧州的老相好寡妇赛西施(沈傲君 饰)和她的店“食为天”搬到了“一笑堂”的对面。喜来乐爱吃醋的老婆胡氏(梁丽 饰)本就是个不好惹的母老虎,赛西施的到来,更是惹得他们全家每天鸡犬不宁。喜来乐的名气越来越大,甚至得到了皇帝和慈禧的赏识,王太医也加紧了陷害他的脚步,前方等待喜来乐一家人的究竟是什么呢?


    1. General
    2. Unique ID                      : 199701874043445811953761812961078047524 (0x963D2E921DAD159A9CF71A58CF7C7324)
    3. Complete name                  : E:\N_m3u8DL-CLI_v2.5.7_with_ffmpeg_and_SimpleG\神医喜来乐\神医喜来乐 31 假喜来乐招摇撞骗.Magic.Doctor.Xi.Lai.Le.2003.1080P.WEB-DL.H264.AAC-YMLY.mkv
    4. Format                         : Matroska
    5. Format version                 : Version 4
    6. File size                      : 1.25 GiB
    7. Duration                       : 46 min 31 s
    8. Overall bit rate               : 3 858 kb/s
    9. Movie name                     : 影迷乐园@时光
    10. Encoded date                   : UTC 2020-11-10 08:23:25
    11. Writing application            : mkvmerge v16.0.0 ('Protest') 64-bit
    12. Writing library                : libebml v1.3.5 + libmatroska v1.4.8

    13. Video
    14. ID                             : 1
    15. Format                         : AVC
    16. Format/Info                    : Advanced Video Codec
    17. Format profile                 : High@L4
    18. Format settings                : CABAC / 4 Ref Frames
    19. Format settings, CABAC         : Yes
    20. Format settings, Reference fra : 4 frames
    21. Codec ID                       : V_MPEG4/ISO/AVC
    22. Duration                       : 46 min 31 s
    23. Bit rate                       : 3 729 kb/s
    24. Width                          : 1 920 pixels
    25. Height                         : 1 080 pixels
    26. Display aspect ratio           : 16:9
    27. Frame rate mode                : Constant
    28. Frame rate                     : 25.000 FPS
    29. Color space                    : YUV
    30. Chroma subsampling             : 4:2:0
    31. Bit depth                      : 8 bits
    32. Scan type                      : Progressive
    33. Bits/(Pixel*Frame)             : 0.072
    34. Stream size                    : 1.21 GiB (97%)
    35. Default                        : Yes
    36. Forced                         : No
    37. Color range                    : Limited
    38. Color primaries                : BT.709
    39. Transfer characteristics       : BT.709
    40. Matrix coefficients            : BT.709

    41. Audio
    42. ID                             : 2
    43. Format                         : AAC LC
    44. Format/Info                    : Advanced Audio Codec Low Complexity
    45. Codec ID                       : A_AAC-2
    46. Duration                       : 46 min 31 s
    47. Bit rate                       : 127 kb/s
    48. Channel(s)                     : 2 channels
    49. Channel layout                 : L R
    50. Sampling rate                  : 44.1 kHz
    51. Frame rate                     : 43.066 FPS (1024 SPF)
    52. Compression mode               : Lossy
    53. Delay relative to video        : -46 ms
    54. Stream size                    : 42.3 MiB (3%)
    55. Title                          : 国语
    56. Language                       : Chinese
    57. Default                        : Yes
    58. Forced                         : No

    59. Text
    60. ID                             : 3
    61. Format                         : ASS
    62. Codec ID                       : S_TEXT/ASS
    63. Codec ID/Info                  : Advanced Sub Station Alpha
    64. Duration                       : 41 min 11 s
    65. Bit rate                       : 121 b/s
    66. Count of elements              : 838
    67. Compression mode               : Lossless
    68. Stream size                    : 36.6 KiB (0%)
    69. Title                          : 简体中文
    70. Language                       : Chinese
    71. Default                        : Yes
    72. Forced                         : No

    复制代码















    视频和字幕均来自流媒体,版主 @zflzemail 帮忙改的字体,本人自扒自封装,费心费力,仅限本坛会员交流,禁止转载。
    购买主题 已有 5 人购买  本主题需向作者支付 200 大洋 才能浏览
    回复

    使用道具 举报

  • TA的每日心情
    开心
    7 小时前
  • 签到天数: 178 天

    [LV.7]常住居民III

    0

    主题

    267

    帖子

    19

    积分

    入门影迷

    Rank: 1

    积分
    19
    发表于 2020-11-11 00:24:51 | 显示全部楼层
    谢谢楼主分享,收藏了
    回复

    使用道具 举报

  • TA的每日心情
    奋斗
    昨天 10:00
  • 签到天数: 80 天

    [LV.6]常住居民II

    3

    主题

    765

    帖子

    43

    积分

    初级影迷

    Rank: 2

    积分
    43
    发表于 2020-11-11 03:35:57 | 显示全部楼层
    经典好剧啊啊
    回复

    使用道具 举报

  • TA的每日心情
    奋斗
    昨天 10:00
  • 签到天数: 80 天

    [LV.6]常住居民II

    3

    主题

    765

    帖子

    43

    积分

    初级影迷

    Rank: 2

    积分
    43
    发表于 2020-11-11 03:37:23 | 显示全部楼层
    经典好剧啊啊
    回复

    使用道具 举报

  • TA的每日心情
    开心
    3 小时前
  • 签到天数: 102 天

    [LV.6]常住居民II

    3

    主题

    986

    帖子

    291

    积分

    超级影迷

    Rank: 6Rank: 6

    积分
    291

    小土豪勋章

    发表于 2020-11-11 04:23:06 | 显示全部楼层
    感谢分享!
    回复

    使用道具 举报

  • TA的每日心情
    开心
    半小时前
  • 签到天数: 164 天

    [LV.7]常住居民III

    0

    主题

    361

    帖子

    36

    积分

    初级影迷

    Rank: 2

    积分
    36
    发表于 2020-11-11 06:39:08 | 显示全部楼层
    感谢分享!
    回复

    使用道具 举报

  • TA的每日心情

    昨天 15:06
  • 签到天数: 88 天

    [LV.6]常住居民II

    0

    主题

    375

    帖子

    193

    积分

    高级影迷

    Rank: 4

    积分
    193
    发表于 2020-11-12 10:50:35 | 显示全部楼层
    好电视剧 不错!
    回复

    使用道具 举报

  • TA的每日心情
    奋斗
    昨天 00:32
  • 签到天数: 198 天

    [LV.7]常住居民III

    5

    主题

    1182

    帖子

    97

    积分

    中级影迷

    Rank: 3Rank: 3

    积分
    97
    发表于 2020-11-13 00:40:33 | 显示全部楼层
    谢谢楼主!
    回复

    使用道具 举报

  • TA的每日心情
    擦汗
    昨天 10:12
  • 签到天数: 572 天

    [LV.9]以坛为家II

    38

    主题

    6524

    帖子

    869

    积分

    资深影迷

    Rank: 10Rank: 10Rank: 10

    积分
    869
    发表于 2020-11-14 08:37:39 | 显示全部楼层
    又见好资源,谢谢!
    回复

    使用道具 举报

  • TA的每日心情
    开心
    昨天 00:42
  • 签到天数: 41 天

    [LV.5]常住居民I

    0

    主题

    291

    帖子

    41

    积分

    初级影迷

    Rank: 2

    积分
    41
    发表于 2020-11-14 14:04:46 | 显示全部楼层
    老片子咯!!!
    回复

    使用道具 举报

    您需要登录后才可以回帖 登录 | 立即注册

    本版积分规则

    QQ|Archiver|手机版|小黑屋|影迷乐园

    GMT+8, 2020-12-2 08:04 , Processed in 0.068284 second(s), 29 queries .

    Powered by Discuz! X3.4

    Copyright © 2001-2020, Tencent Cloud.

    快速回复 返回顶部 返回列表