请选择 进入手机版 | 继续访问电脑版

YMLY-影迷乐园-特效字幕 蓝光原盘 1080P 高清动漫电影电视剧

 找回密码
 立即注册
搜索
查看: 133|回复: 16

[美国] [115+百度][2020][1080P][艾米丽在巴黎.艾蜜莉在巴黎.第一季][简.中英字幕][10集全][MKV][7.13GB][Emily.in.Paris.S01.1080p.Netflix.WEB-DL.DDP5.1.x265.10bit-Yumi]

[复制链接]
  • TA的每日心情
    奋斗
    2020-2-21 00:36
  • 签到天数: 656 天

    [LV.9]以坛为家II

    8125

    主题

    1万

    帖子

    6万

    积分

    超级版主

    与齐同行,是最初的梦想,也是一辈子的执着~

    Rank: 16Rank: 16Rank: 16Rank: 16

    积分
    62682

    内测勋章最佳新人十二生肖之猴VIP包月勋章影迷男神小土豪勋章土豪勋章富甲一方精华勋章金话筒主题达人灌水之王

    发表于 2020-11-15 22:17:29 | 显示全部楼层 |阅读模式
    下载说明:

    百度云网盘分享极其不稳定,如有链接失效,请第一时间站内短消息通知我,上线后会第一时间补发!请大家多多谅解!电驴链接只能115会员离线下载,其它工具都下载不了!


    ----转载自FRDS,感谢压制和原发布人员,特此鸣谢!----



    ◎译  名 艾米丽在巴黎 第一季/艾米丽在巴黎/艾蜜莉在巴黎
    ◎片  名 Emily in Paris Season 1
    ◎年  代 2020
    ◎产  地 美国
    ◎类  别 喜剧 / 爱情
    ◎语  言 英语,法语
    ◎上映日期 2020-10-02(美国)
    ◎IMDb评分  7.1/10 from 29980 users
    ◎IMDb链接  https://www.imdb.com/title/tt8962124/
    ◎豆瓣评分 7.3/10 from 49322 users
    ◎豆瓣链接 https://movie.douban.com/subject/30319440/
    ◎集  数 10
    ◎片  长 30分钟
    ◎导  演 安德鲁·弗莱明 Andrew Fleming / 彼得·劳尔 Peter Lauer
    ◎编  剧 达伦·思达 Darren Star / 艾米莉·戈德温 Emily Goldwyn
    ◎主  演 莉莉·柯林斯 Lily Collins
           阿什利·朴 Ashley Park
           菲利平·勒鲁瓦-博利约 Philippine Leroy-Beaulieu
           卡米尔·拉萨特 Camille Razat
           凯特·沃什 Kate Walsh
           让-克里斯托夫·布维 Jean-Christophe Bouvet
           克里斯多夫·泰克 Christophe Tek
           克洛德·佩隆 Claude Perron
           亚历克西斯·巴尔博萨 Alexis Barbosa
           米歇尔·贝尔 Michel Biel
           克里斯托夫·吉贝 Christophe Guybet
           亚历珊德拉·耶尔马克 Aleksandra Yermak
           卢卡斯·布哈沃 Lucas Bravo
           艾什莉·朴 Ashley Park
           维克多·梅特莱特 Victor Meutelet
           威廉·阿巴迪 William Abadie
           塞缪尔·阿诺德 Samuel Arnold
           查尔斯·马丁斯 Charles Martins
           布鲁诺·格里 Bruno Gouery

    ◎标  签 美剧 | 喜剧 | 莉莉·柯林斯 | Paris | 美国 | 2020 | LilyCollins | 剧情

    ◎简  介

      二十多岁的艾米丽来自芝加哥,是一位雄心勃勃的营销主管,在她所在的公司收购了一家法国奢侈品营销公司后,她出乎意料地在巴黎寻得了自己梦寐以求的工作,负责改进公司的社交媒体策略。艾米莉在巴黎的新生活充满了令人兴奋的冒险和惊喜的挑战,她要努力与同事打成一片、结交新朋友,并开始新的恋情。
    1. General
    2. Unique ID                      : 188475957348940879337548492534899776261 (0x8DCB26253A173C0DB419BB4A7EAB9B05)
    3. Format                         : Matroska
    4. Format version                 : Version 4
    5. File size                      : 734 MiB
    6. Duration                       : 26 min 40 s
    7. Overall bit rate               : 3 846 kb/s
    8. Encoded date                   : UTC 2020-10-03 16:46:46
    9. Writing application            : mkvmerge v9.9.0 ('Pick Up') 64bit
    10. Writing library                : libebml v1.3.4 + libmatroska v1.4.5

    11. Video
    12. ID                             : 5
    13. Format                         : HEVC
    14. Format/Info                    : High Efficiency Video Coding
    15. Format profile                 : Main 10@L4@Main
    16. Codec ID                       : V_MPEGH/ISO/HEVC
    17. Duration                       : 26 min 40 s
    18. Bit rate                       : 3 204 kb/s
    19. Width                          : 1 920 pixels
    20. Height                         : 1 080 pixels
    21. Display aspect ratio           : 16:9
    22. Frame rate mode                : Constant
    23. Frame rate                     : 23.976 (24000/1001) FPS
    24. Color space                    : YUV
    25. Chroma subsampling             : 4:2:0
    26. Bit depth                      : 10 bits
    27. Bits/(Pixel*Frame)             : 0.064
    28. Stream size                    : 611 MiB (83%)
    29. Writing library                : x265 2.8:[Windows][GCC 5.1.0][64 bit] 10bit
    30. Encoding settings              : cpuid=1111039 / frame-threads=2 / wpp / no-pmode / no-pme / no-psnr / no-ssim / log-level=2 / input-csp=1 / input-res=1920x1080 / interlace=0 / total-frames=0 / level-idc=0 / high-tier=1 / uhd-bd=0 / ref=3 / no-allow-non-conformance / no-repeat-headers / annexb / no-aud / no-hrd / info / hash=0 / no-temporal-layers / open-gop / min-keyint=24 / keyint=240 / gop-lookahead=0 / bframes=4 / b-adapt=2 / b-pyramid / bframe-bias=0 / rc-lookahead=20 / lookahead-slices=6 / scenecut=40 / radl=0 / no-intra-refresh / ctu=64 / min-cu-size=8 / no-rect / no-amp / max-tu-size=32 / tu-inter-depth=1 / tu-intra-depth=1 / limit-tu=0 / rdoq-level=0 / dynamic-rd=0.00 / no-ssim-rd / signhide / no-tskip / nr-intra=0 / nr-inter=0 / no-constrained-intra / strong-intra-smoothing / max-merge=2 / limit-refs=3 / no-limit-modes / me=1 / subme=2 / merange=57 / temporal-mvp / weightp / no-weightb / no-analyze-src-pics / deblock=0:0 / sao / no-sao-non-deblock / rd=3 / no-early-skip / rskip / no-fast-intra / no-tskip-fast / no-cu-lossless / no-b-intra / no-splitrd-skip / rdpenalty=0 / psy-rd=0.00 / psy-rdoq=0.00 / no-rd-refine / no-lossless / cbqpoffs=0 / crqpoffs=0 / rc=crf / crf=19.0 / qcomp=0.60 / qpstep=4 / stats-write=0 / stats-read=0 / ipratio=1.40 / pbratio=1.30 / aq-mode=2 / aq-strength=1.00 / cutree / zone-count=0 / no-strict-cbr / qg-size=32 / no-rc-grain / qpmax=69 / qpmin=0 / no-const-vbv / sar=1 / overscan=0 / videoformat=5 / range=0 / colorprim=2 / transfer=2 / colormatrix=2 / chromaloc=0 / display-window=0 / max-cll=0,0 / min-luma=0 / max-luma=1023 / log2-max-poc-lsb=8 / vui-timing-info / vui-hrd-info / slices=1 / no-opt-qp-pps / no-opt-ref-list-length-pps / no-multi-pass-opt-rps / scenecut-bias=0.05 / no-opt-cu-delta-qp / no-aq-motion / no-hdr / no-hdr-opt / no-dhdr10-opt / no-idr-recovery-sei / analysis-reuse-level=5 / scale-factor=0 / refine-intra=0 / refine-inter=0 / refine-mv=0 / no-limit-sao / ctu-info=0 / no-lowpass-dct / refine-mv-type=0 / copy-pic=1 / max-ausize-factor=1.0 / no-dynamic-refine / no-single-sei
    31. Default                        : Yes
    32. Forced                         : No

    33. Audio
    34. ID                             : 1
    35. Format                         : E-AC-3
    36. Format/Info                    : Enhanced AC-3
    37. Commercial name                : Dolby Digital Plus
    38. Codec ID                       : A_EAC3
    39. Duration                       : 26 min 40 s
    40. Bit rate mode                  : Constant
    41. Bit rate                       : 640 kb/s
    42. Channel(s)                     : 6 channels
    43. Channel layout                 : L R C LFE Ls Rs
    44. Sampling rate                  : 48.0 kHz
    45. Frame rate                     : 31.250 FPS (1536 SPF)
    46. Compression mode               : Lossy
    47. Stream size                    : 122 MiB (17%)
    48. Language                       : English
    49. Service kind                   : Complete Main
    50. Default                        : Yes
    51. Forced                         : No

    52. Text #1
    53. ID                             : 2
    54. Format                         : UTF-8
    55. Codec ID                       : S_TEXT/UTF8
    56. Codec ID/Info                  : UTF-8 Plain Text
    57. Duration                       : 24 min 43 s
    58. Bit rate                       : 103 b/s
    59. Count of elements              : 537
    60. Stream size                    : 18.7 KiB (0%)
    61. Title                          : SDH
    62. Language                       : English
    63. Default                        : No
    64. Forced                         : No

    65. Text #2
    66. ID                             : 3
    67. Format                         : UTF-8
    68. Codec ID                       : S_TEXT/UTF8
    69. Codec ID/Info                  : UTF-8 Plain Text
    70. Duration                       : 25 min 24 s
    71. Bit rate                       : 73 b/s
    72. Count of elements              : 422
    73. Stream size                    : 13.7 KiB (0%)
    74. Title                          : Simplified
    75. Language                       : Chinese
    76. Default                        : No
    77. Forced                         : No

    78. Text #3
    79. ID                             : 4
    80. Format                         : UTF-8
    81. Codec ID                       : S_TEXT/UTF8
    82. Codec ID/Info                  : UTF-8 Plain Text
    83. Duration                       : 25 min 24 s
    84. Bit rate                       : 68 b/s
    85. Count of elements              : 423
    86. Stream size                    : 12.7 KiB (0%)
    87. Title                          : Traditional
    88. Language                       : Chinese
    89. Default                        : No
    90. Forced                         : No

    91. Text #4
    92. ID                             : 6
    93. Format                         : ASS
    94. Codec ID                       : S_TEXT/ASS
    95. Codec ID/Info                  : Advanced Sub Station Alpha
    96. Duration                       : 24 min 26 s
    97. Bit rate                       : 548 b/s
    98. Count of elements              : 421
    99. Compression mode               : Lossless
    100. Stream size                    : 98.3 KiB (0%)
    101. Language                       : Chinese
    102. Default                        : Yes
    103. Forced                         : Yes
    复制代码


    截图仅为给大家知道字幕的样式,并非电影的画质。



    购买主题 已有 5 人购买  本主题需向作者支付 20 大洋 才能浏览
    郑重声明:
    本人提供的所有影视作品均是在网上搜集,任何涉及商业盈利目的均不得使用,否则产生的一切后果将由您自己承担!
    本人不对本人所发布的任何内容负任何法律责任!该下载内容仅做宽带测试使用,请在下载后24小时内删除。请购买正版!
    本人列出的文件没有保存在本站的服务器上,本人仅负责连接,本人对被传播文件的内容一无所知。
    如侵犯视频原作者或发行商版权,请联系本人删除!
    回复

    使用道具 举报

  • TA的每日心情
    开心
    昨天 00:56
  • 签到天数: 95 天

    [LV.6]常住居民II

    0

    主题

    199

    帖子

    33

    积分

    初级影迷

    Rank: 2

    积分
    33
    发表于 2020-11-15 22:37:59 | 显示全部楼层
    感谢楼主分享!
    回复

    使用道具 举报

  • TA的每日心情

    2019-10-24 00:15
  • 签到天数: 5 天

    [LV.2]偶尔看看I

    0

    主题

    883

    帖子

    45

    积分

    初级影迷

    Rank: 2

    积分
    45
    发表于 2020-11-15 22:50:04 | 显示全部楼层
    感谢分享。   
    回复

    使用道具 举报

  • TA的每日心情
    奋斗
    1 小时前
  • 签到天数: 98 天

    [LV.6]常住居民II

    18

    主题

    1281

    帖子

    144

    积分

    中级影迷

    Rank: 3Rank: 3

    积分
    144

    小土豪勋章十二生肖之蛇双鱼座勋章土豪勋章

    发表于 2020-11-16 00:19:17 | 显示全部楼层
    感谢楼主分享!
    回复

    使用道具 举报

  • TA的每日心情
    开心
    昨天 02:03
  • 签到天数: 94 天

    [LV.6]常住居民II

    3

    主题

    902

    帖子

    265

    积分

    超级影迷

    Rank: 6Rank: 6

    积分
    265

    小土豪勋章

    发表于 2020-11-16 01:04:36 | 显示全部楼层
    谢谢分享!
    回复

    使用道具 举报

  • TA的每日心情
    开心
    1 小时前
  • 签到天数: 140 天

    [LV.7]常住居民III

    1

    主题

    1467

    帖子

    288

    积分

    超级影迷

    Rank: 6Rank: 6

    积分
    288
    发表于 2020-11-16 07:40:13 | 显示全部楼层
    谢谢楼主分享
    回复

    使用道具 举报

  • TA的每日心情
    开心
    昨天 07:43
  • 签到天数: 114 天

    [LV.6]常住居民II

    1

    主题

    1276

    帖子

    229

    积分

    高级影迷

    Rank: 4

    积分
    229
    发表于 2020-11-16 07:48:46 | 显示全部楼层
    感谢分享!
    回复

    使用道具 举报

  • TA的每日心情
    奋斗
    昨天 00:03
  • 签到天数: 73 天

    [LV.6]常住居民II

    3

    主题

    680

    帖子

    39

    积分

    初级影迷

    Rank: 2

    积分
    39
    发表于 2020-11-16 08:43:41 | 显示全部楼层
    时代剧不错的片子啊
    回复

    使用道具 举报

  • TA的每日心情
    开心
    昨天 09:06
  • 签到天数: 40 天

    [LV.5]常住居民I

    0

    主题

    527

    帖子

    32

    积分

    初级影迷

    Rank: 2

    积分
    32
    发表于 2020-11-16 08:52:44 | 显示全部楼层
    感谢分享!
    回复

    使用道具 举报

  • TA的每日心情
    郁闷
    昨天 13:40
  • 签到天数: 115 天

    [LV.6]常住居民II

    4

    主题

    1347

    帖子

    107

    积分

    中级影迷

    Rank: 3Rank: 3

    积分
    107
    发表于 2020-11-16 10:21:39 | 显示全部楼层
    感谢分享!
    回复

    使用道具 举报

    您需要登录后才可以回帖 登录 | 立即注册

    本版积分规则

    QQ|Archiver|手机版|小黑屋|影迷乐园

    GMT+8, 2020-11-25 01:10 , Processed in 0.069417 second(s), 28 queries .

    Powered by Discuz! X3.4

    Copyright © 2001-2020, Tencent Cloud.

    快速回复 返回顶部 返回列表