请选择 进入手机版 | 继续访问电脑版

YMLY-影迷乐园-特效字幕 蓝光原盘 1080P 高清动漫电影电视剧

 找回密码
 立即注册
搜索
查看: 108|回复: 18

[日本] [百度][2016][720P][暗金丑岛君.第三季][日语.简中字幕][山田孝之.绫野刚][9集全][5.07G][Yamikin.Ushijimakun.S03.720p.HDTV.x264.AAC]

[复制链接]
  • TA的每日心情
    无聊
    昨天 01:56
  • 签到天数: 249 天

    [LV.8]以坛为家I

    281

    主题

    928

    帖子

    3764

    积分

    超级版主

    Rank: 16Rank: 16Rank: 16Rank: 16

    积分
    3764

    超版勋章版主勋章土豪勋章小土豪勋章最佳新人十二生肖之猴双鱼座勋章百分百好孩子精华勋章知识勋章音乐之星

    发表于 2020-11-16 16:59:22 | 显示全部楼层 |阅读模式
    下载说明:

    百度网盘分享极其不稳定,如有链接失效,请第一时间站内短消息通知我,上线后会第一时间补发!





    ◎译  名  暗金丑岛君 第三季 / Episode #3.1
    ◎片  名  闇金ウシジマくん Season3
    ◎年  代  2016
    ◎产  地  日本
    ◎类  别  剧情 / 犯罪
    ◎语  言  日语
    ◎上映日期  2016-07-18(日本)
    ◎IMDb链接   https://www.imdb.com/title/tt5934494/
    ◎豆瓣评星  ★★★★
    ◎豆瓣评分  8.3/10 from 4,158 users
    ◎豆瓣链接  https://movie.douban.com/subject/26788945/
    ◎单集片长  30分钟
    ◎集  数  9
    ◎导  演  山口雅俊 / Masatoshi Yamaguchi
          川村泰祐 / Yasuhiro Kawamura
    ◎演  员  山田孝之 / Yamada Takayuki
          绫野刚 / Go Ayano
          佐佐木麻衣 / Mai Sasaki
          卯水咲流 / Saryu Usui
          希崎·杰西卡 / Jessica Kizaki
          幸田李梨 / Riri Koda
            久保寺瑞纪 Mizuki Kubotera
          光宗薰 / Kaoru Mitsumune
          中村伦也 / Tomoya Nakamura
          佐佐木心音 / Kokone Sasaki
          久松郁实 / Ikumi Hisamatsu
          小濑田麻由 / Mayu Koseta
          今野鲇莉 / Ayuri Konno
          槙田雄司 / Makita Sports
          高桥玛莉润 / Maryjun Takahashi
          崎本大海 / Hiromi Sakimoto
          矢部享佑 / Kyosuke Yabe
          寺田御子 / Miko Terada
          纱仓真菜 / Mana Sakura
    ◎编  剧  福间正浩 / Masahiro Fukuma
          山口雅俊 / Masatoshi Yamaguchi
          真锅昌平 / Shohei Manabe
    ◎音  乐  末广健一郎 / Ken'ichiro Suehiro

    ◎标  签  日剧 | 犯罪 | 日本 | 人性 | 暗金丑岛君 | 2016 | 深夜剧 | 黑色幽默

    ◎简  介 

      《暗金丑岛君》是以违法放高利贷的暗金为题材的电视剧。主人公丑岛馨由山田孝之饰演,戊亥由绫野刚饰演,CowCow Finance的社员·高田由崎本大海饰演,柄崎由矢部享佑饰演。此外电视剧《暗金丑岛君Season3》讲述的是原作第26卷至28卷展开的《洗脑君》篇。在女性向杂志工作的上原まゆみ由光宗薰饰演,精神控制了上原まゆみ和其家人的神秘男子·神堂大道由中村伦也饰演。


    1. Complete name                  :Yamikin.Ushijimakun.S03E01.720p.HDTV.x264.AAC.mkv
    2. Format                         : Matroska
    3. Format version                 : Version 4
    4. File size                      : 576 MiB
    5. Duration                       : 23 min 59 s
    6. Overall bit rate               : 3 358 kb/s
    7. Encoded date                   : UTC 2020-11-15 10:34:42
    8. Writing application            : mkvmerge v47.0.0 ('Black Flag') 64-bit
    9. Writing library                : libebml v1.3.10 + libmatroska v1.5.2
    10. Attachments                    : 方正准圆_GBK.TTF / msjhbd.ttc / DFPHuaZongW5-B5.ttf

    11. Video
    12. ID                             : 1
    13. Format                         : AVC
    14. Format/Info                    : Advanced Video Codec
    15. Format profile                 : High@L4.1
    16. Format settings                : CABAC / 5 Ref Frames
    17. Format settings, CABAC         : Yes
    18. Format settings, Reference fra : 5 frames
    19. Codec ID                       : V_MPEG4/ISO/AVC
    20. Duration                       : 23 min 59 s
    21. Bit rate                       : 3 104 kb/s
    22. Width                          : 1 280 pixels
    23. Height                         : 720 pixels
    24. Display aspect ratio           : 16:9
    25. Frame rate mode                : Constant
    26. Frame rate                     : 23.976 (24000/1001) FPS
    27. Color space                    : YUV
    28. Chroma subsampling             : 4:2:0
    29. Bit depth                      : 8 bits
    30. Scan type                      : Progressive
    31. Bits/(Pixel*Frame)             : 0.140
    32. Stream size                    : 532 MiB (92%)
    33. Writing library                : x264 core 146 r2538 121396c
    34. Encoding settings              : cabac=1 / ref=5 / deblock=1:-3:-3 / analyse=0x3:0x113 / me=umh / subme=10 / psy=1 / psy_rd=1.00:0.00 / mixed_ref=1 / me_range=48 / chroma_me=1 / trellis=2 / 8x8dct=1 / cqm=0 / deadzone=21,11 / fast_pskip=0 / chroma_qp_offset=-1 / threads=24 / lookahead_threads=2 / sliced_threads=0 / nr=0 / decimate=1 / interlaced=0 / bluray_compat=0 / constrained_intra=0 / bframes=6 / b_pyramid=2 / b_adapt=2 / b_bias=0 / direct=3 / weightb=1 / open_gop=0 / weightp=2 / keyint=250 / keyint_min=23 / scenecut=40 / intra_refresh=0 / rc_lookahead=50 / rc=2pass / mbtree=0 / bitrate=3104 / ratetol=2.0 / qcomp=0.70 / qpmin=0 / qpmax=69 / qpstep=4 / cplxblur=20.0 / qblur=0.5 / vbv_maxrate=10000 / vbv_bufsize=10000 / nal_hrd=none / filler=0 / ip_ratio=1.40 / pb_ratio=1.30 / aq=1:1.00
    35. Language                       : English
    36. Default                        : Yes
    37. Forced                         : No

    38. Audio
    39. ID                             : 2
    40. Format                         : AAC LC
    41. Format/Info                    : Advanced Audio Codec Low Complexity
    42. Codec ID                       : A_AAC-2
    43. Duration                       : 23 min 59 s
    44. Bit rate                       : 96.0 kb/s
    45. Channel(s)                     : 2 channels
    46. Channel layout                 : L R
    47. Sampling rate                  : 48.0 kHz
    48. Frame rate                     : 46.875 FPS (1024 SPF)
    49. Compression mode               : Lossy
    50. Delay relative to video        : 9 ms
    51. Stream size                    : 16.5 MiB (3%)
    52. Default                        : Yes
    53. Forced                         : No

    54. Text
    55. ID                             : 3
    56. Format                         : ASS
    57. Codec ID                       : S_TEXT/ASS
    58. Codec ID/Info                  : Advanced Sub Station Alpha
    59. Duration                       : 23 min 58 s
    60. Bit rate                       : 115 b/s
    61. Count of elements              : 430
    62. Compression mode               : Lossless
    63. Stream size                    : 20.3 KiB (0%)
    64. Language                       : Chinese
    65. Default                        : Yes
    66. Forced                         : No

    67. Menu
    68. 00:00:00.054                   : en:00:00:00.054
    复制代码









    购买主题 已有 7 人购买  本主题需向作者支付 20 大洋 才能浏览
    回复

    使用道具 举报

  • TA的每日心情
    开心
    前天 09:17
  • 签到天数: 102 天

    [LV.6]常住居民II

    4

    主题

    1020

    帖子

    295

    积分

    超级影迷

    Rank: 6Rank: 6

    积分
    295
    发表于 2020-11-16 17:14:24 | 显示全部楼层
    感谢分享!
    回复

    使用道具 举报

  • TA的每日心情
    开心
    昨天 10:33
  • 签到天数: 1178 天

    [LV.10]以坛为家III

    166

    主题

    1864

    帖子

    541

    积分

    专业影迷

    Rank: 8Rank: 8

    积分
    541
    发表于 2020-11-16 17:15:50 | 显示全部楼层
    感谢分享,收藏观影了~~~
    回复

    使用道具 举报

  • TA的每日心情

    昨天 08:46
  • 签到天数: 11 天

    [LV.3]偶尔看看II

    0

    主题

    105

    帖子

    13

    积分

    入门影迷

    Rank: 1

    积分
    13
    发表于 2020-11-16 17:20:46 | 显示全部楼层
    感谢分享,喜欢这个!
    回复

    使用道具 举报

  • TA的每日心情
    奋斗
    昨天 00:03
  • 签到天数: 73 天

    [LV.6]常住居民II

    3

    主题

    680

    帖子

    39

    积分

    初级影迷

    Rank: 2

    积分
    39
    发表于 2020-11-16 19:24:04 | 显示全部楼层
    3季度啊一共这个!
    回复

    使用道具 举报

  • TA的每日心情
    奋斗
    2 小时前
  • 签到天数: 98 天

    [LV.6]常住居民II

    18

    主题

    1281

    帖子

    144

    积分

    中级影迷

    Rank: 3Rank: 3

    积分
    144

    小土豪勋章十二生肖之蛇双鱼座勋章土豪勋章

    发表于 2020-11-16 22:16:42 | 显示全部楼层
    感谢分享!
    回复

    使用道具 举报

  • TA的每日心情
    无聊
    1 小时前
  • 签到天数: 194 天

    [LV.7]常住居民III

    4

    主题

    373

    帖子

    25

    积分

    初级影迷

    Rank: 2

    积分
    25
    发表于 2020-11-16 23:37:41 | 显示全部楼层

    感谢分享!
    回复

    使用道具 举报

  • TA的每日心情
    开心
    昨天 02:03
  • 签到天数: 94 天

    [LV.6]常住居民II

    3

    主题

    902

    帖子

    265

    积分

    超级影迷

    Rank: 6Rank: 6

    积分
    265

    小土豪勋章

    发表于 2020-11-17 00:51:43 | 显示全部楼层
    谢谢分享!
    回复

    使用道具 举报

  • TA的每日心情

    昨天 09:09
  • 签到天数: 226 天

    [LV.7]常住居民III

    3

    主题

    1187

    帖子

    300

    积分

    超级影迷

    Rank: 6Rank: 6

    积分
    300

    小土豪勋章

    发表于 2020-11-17 07:35:21 | 显示全部楼层
    感谢分享!
    回复

    使用道具 举报

  • TA的每日心情
    开心
    2 小时前
  • 签到天数: 140 天

    [LV.7]常住居民III

    1

    主题

    1467

    帖子

    288

    积分

    超级影迷

    Rank: 6Rank: 6

    积分
    288
    发表于 2020-11-17 07:41:30 | 显示全部楼层
    谢谢楼主分享
    回复

    使用道具 举报

    您需要登录后才可以回帖 登录 | 立即注册

    本版积分规则

    QQ|Archiver|手机版|小黑屋|影迷乐园

    GMT+8, 2020-11-25 02:13 , Processed in 0.067070 second(s), 28 queries .

    Powered by Discuz! X3.4

    Copyright © 2001-2020, Tencent Cloud.

    快速回复 返回顶部 返回列表