请选择 进入手机版 | 继续访问电脑版

YMLY-影迷乐园-特效字幕 蓝光原盘 1080P 高清动漫电影电视剧

 找回密码
 立即注册
搜索
查看: 81|回复: 19

[日本] [百度][2016][1080i][暗金丑岛君.第三季][日语.简中字幕][山田孝之.绫野刚][9集全][10.8G][Yamikin.Ushijima-kun.S03.2016.1080i.HDTV.H264.AAC]

[复制链接]
  • TA的每日心情
    无聊
    昨天 01:56
  • 签到天数: 249 天

    [LV.8]以坛为家I

    281

    主题

    928

    帖子

    3763

    积分

    超级版主

    Rank: 16Rank: 16Rank: 16Rank: 16

    积分
    3763

    超版勋章版主勋章土豪勋章小土豪勋章最佳新人十二生肖之猴双鱼座勋章百分百好孩子精华勋章知识勋章音乐之星

    发表于 6 天前 | 显示全部楼层 |阅读模式
    下载说明:

    百度网盘分享极其不稳定,如有链接失效,请第一时间站内短消息通知我,上线后会第一时间补发!





    ◎译  名  暗金丑岛君 第三季 / Episode #3.1
    ◎片  名  闇金ウシジマくん Season3
    ◎年  代  2016
    ◎产  地  日本
    ◎类  别  剧情 / 犯罪
    ◎语  言  日语
    ◎上映日期  2016-07-18(日本)
    ◎IMDb链接   https://www.imdb.com/title/tt5934494/
    ◎豆瓣评星  ★★★★
    ◎豆瓣评分  8.3/10 from 4,158 users
    ◎豆瓣链接  https://movie.douban.com/subject/26788945/
    ◎单集片长  30分钟
    ◎集  数  9
    ◎导  演  山口雅俊 / Masatoshi Yamaguchi
          川村泰祐 / Yasuhiro Kawamura
    ◎演  员  山田孝之 / Yamada Takayuki
          绫野刚 / Go Ayano
          佐佐木麻衣 / Mai Sasaki
          卯水咲流 / Saryu Usui
          希崎·杰西卡 / Jessica Kizaki
          幸田李梨 / Riri Koda
            久保寺瑞纪 Mizuki Kubotera
          光宗薰 / Kaoru Mitsumune
          中村伦也 / Tomoya Nakamura
          佐佐木心音 / Kokone Sasaki
          久松郁实 / Ikumi Hisamatsu
          小濑田麻由 / Mayu Koseta
          今野鲇莉 / Ayuri Konno
          槙田雄司 / Makita Sports
          高桥玛莉润 / Maryjun Takahashi
          崎本大海 / Hiromi Sakimoto
          矢部享佑 / Kyosuke Yabe
          寺田御子 / Miko Terada
          纱仓真菜 / Mana Sakura
    ◎编  剧  福间正浩 / Masahiro Fukuma
          山口雅俊 / Masatoshi Yamaguchi
          真锅昌平 / Shohei Manabe
    ◎音  乐  末广健一郎 / Ken'ichiro Suehiro

    ◎标  签  日剧 | 犯罪 | 日本 | 人性 | 暗金丑岛君 | 2016 | 深夜剧 | 黑色幽默

    ◎简  介 

      《暗金丑岛君》是以违法放高利贷的暗金为题材的电视剧。主人公丑岛馨由山田孝之饰演,戊亥由绫野刚饰演,CowCow Finance的社员·高田由崎本大海饰演,柄崎由矢部享佑饰演。此外电视剧《暗金丑岛君Season3》讲述的是原作第26卷至28卷展开的《洗脑君》篇。在女性向杂志工作的上原まゆみ由光宗薰饰演,精神控制了上原まゆみ和其家人的神秘男子·神堂大道由中村伦也饰演。

    1. Complete name                  : 闇金ウシジマくん Season3 第1話.mkv
    2. Format                         : Matroska
    3. Format version                 : Version 4
    4. File size                      : 1.23 GiB
    5. Duration                       : 23 min 59 s
    6. Overall bit rate               : 7 351 kb/s
    7. Movie name                     : 闇金ウシジマくん Season3 第1話
    8. Encoded date                   : UTC 2020-11-17 17:08:51
    9. Writing application            : mkvmerge v47.0.0 ('Black Flag') 64-bit
    10. Writing library                : libebml v1.3.10 + libmatroska v1.5.2
    11. Attachments                    : 方正准圆_GBK.TTF / msjhbd.ttc / DFPHuaZongW5-B5.ttf

    12. Video
    13. ID                             : 1
    14. Format                         : AVC
    15. Format/Info                    : Advanced Video Codec
    16. Format profile                 : High@L4.1
    17. Format settings                : CABAC / 5 Ref Frames
    18. Format settings, CABAC         : Yes
    19. Format settings, Reference fra : 5 frames
    20. Codec ID                       : V_MPEG4/ISO/AVC
    21. Duration                       : 23 min 59 s
    22. Bit rate                       : 7 000 kb/s
    23. Width                          : 1 440 pixels
    24. Height                         : 1 080 pixels
    25. Display aspect ratio           : 16:9
    26. Frame rate mode                : Constant
    27. Frame rate                     : 29.970 (30000/1001) FPS
    28. Color space                    : YUV
    29. Chroma subsampling             : 4:2:0
    30. Bit depth                      : 8 bits
    31. Scan type                      : MBAFF
    32. Scan type, store method        : Interleaved fields
    33. Scan order                     : Top Field First
    34. Bits/(Pixel*Frame)             : 0.150
    35. Stream size                    : 1.17 GiB (95%)
    36. Title                          : H.264/AVC High@L4.1
    37. Writing library                : x264 core 148 r2705 3f5ed56
    38. Encoding settings              : cabac=1 / ref=5 / deblock=1:-2:-1 / analyse=0x3:0x133 / me=umh / subme=11 / psy=1 / psy_rd=1.00:0.15 / mixed_ref=1 / me_range=32 / chroma_me=1 / trellis=2 / 8x8dct=1 / cqm=0 / deadzone=21,11 / fast_pskip=0 / chroma_qp_offset=-3 / threads=12 / lookahead_threads=3 / sliced_threads=0 / nr=0 / decimate=1 / interlaced=tff / bluray_compat=0 / constrained_intra=0 / bframes=16 / b_pyramid=2 / b_adapt=2 / b_bias=0 / direct=3 / weightb=1 / open_gop=0 / weightp=0 / keyint=250 / keyint_min=25 / scenecut=40 / intra_refresh=0 / rc_lookahead=60 / rc=crf / mbtree=1 / crf=19.0 / qcomp=0.60 / qpmin=0 / qpmax=69 / qpstep=4 / ip_ratio=1.40 / aq=1:1.00
    39. Language                       : Japanese
    40. Default                        : Yes
    41. Forced                         : No

    42. Audio
    43. ID                             : 2
    44. Format                         : AAC LC
    45. Format/Info                    : Advanced Audio Codec Low Complexity
    46. Codec ID                       : A_AAC-2
    47. Duration                       : 23 min 59 s
    48. Bit rate                       : 192 kb/s
    49. Channel(s)                     : 2 channels
    50. Channel layout                 : L R
    51. Sampling rate                  : 48.0 kHz
    52. Frame rate                     : 46.875 FPS (1024 SPF)
    53. Compression mode               : Lossy
    54. Delay relative to video        : 6 ms
    55. Stream size                    : 32.4 MiB (3%)
    56. Title                          : AAC-LC 2.0
    57. Language                       : Japanese
    58. Default                        : Yes
    59. Forced                         : No

    60. Text
    61. ID                             : 3
    62. Format                         : ASS
    63. Codec ID                       : S_TEXT/ASS
    64. Codec ID/Info                  : Advanced Sub Station Alpha
    65. Duration                       : 23 min 58 s
    66. Bit rate                       : 115 b/s
    67. Count of elements              : 430
    68. Compression mode               : Lossless
    69. Stream size                    : 20.3 KiB (0%)
    70. Language                       : Chinese
    71. Default                        : Yes
    72. Forced                         : No

    73. Menu
    74. 00:00:00.054                   : en:00:00:00.054
    复制代码










    购买主题 已有 9 人购买  本主题需向作者支付 30 大洋 才能浏览
    回复

    使用道具 举报

  • TA的每日心情
    奋斗
    前天 06:54
  • 签到天数: 186 天

    [LV.7]常住居民III

    0

    主题

    425

    帖子

    24

    积分

    入门影迷

    Rank: 1

    积分
    24
    发表于 6 天前 | 显示全部楼层
    #在这里快如果您要查看本帖隐藏内容请回复速回复#
    回复

    使用道具 举报

  • TA的每日心情
    开心
    昨天 10:33
  • 签到天数: 1178 天

    [LV.10]以坛为家III

    166

    主题

    1864

    帖子

    541

    积分

    专业影迷

    Rank: 8Rank: 8

    积分
    541
    发表于 6 天前 | 显示全部楼层
    感谢分享,收藏了~~~
    回复

    使用道具 举报

  • TA的每日心情
    开心
    2020-6-11 21:02
  • 签到天数: 1 天

    [LV.1]初来乍到

    4

    主题

    27

    帖子

    9

    积分

    入门影迷

    Rank: 1

    积分
    9
    发表于 6 天前 | 显示全部楼层
    先收为敬 谢谢分享
    回复

    使用道具 举报

  • TA的每日心情
    开心
    昨天 02:03
  • 签到天数: 94 天

    [LV.6]常住居民II

    3

    主题

    902

    帖子

    265

    积分

    超级影迷

    Rank: 6Rank: 6

    积分
    265

    小土豪勋章

    发表于 5 天前 | 显示全部楼层
    感谢楼主分享!
    回复

    使用道具 举报

  • TA的每日心情
    开心
    昨天 07:43
  • 签到天数: 114 天

    [LV.6]常住居民II

    1

    主题

    1276

    帖子

    229

    积分

    高级影迷

    Rank: 4

    积分
    229
    发表于 5 天前 | 显示全部楼层
    感谢分享!
    回复

    使用道具 举报

  • TA的每日心情
    开心
    昨天 08:16
  • 签到天数: 138 天

    [LV.7]常住居民III

    18

    主题

    1492

    帖子

    162

    积分

    高级影迷

    Rank: 4

    积分
    162
    发表于 5 天前 | 显示全部楼层
    感谢分享,支持一下
    回复

    使用道具 举报

  • TA的每日心情
    开心
    昨天 08:16
  • 签到天数: 138 天

    [LV.7]常住居民III

    18

    主题

    1492

    帖子

    162

    积分

    高级影迷

    Rank: 4

    积分
    162
    发表于 5 天前 | 显示全部楼层
    感谢分享,支持一下
    回复

    使用道具 举报

  • TA的每日心情
    开心
    昨天 09:06
  • 签到天数: 40 天

    [LV.5]常住居民I

    0

    主题

    527

    帖子

    32

    积分

    初级影迷

    Rank: 2

    积分
    32
    发表于 5 天前 | 显示全部楼层
    感谢楼主分享!
    回复

    使用道具 举报

  • TA的每日心情
    奋斗
    昨天 13:47
  • 签到天数: 86 天

    [LV.6]常住居民II

    7

    主题

    923

    帖子

    267

    积分

    超级影迷

    Rank: 6Rank: 6

    积分
    267
    发表于 5 天前 | 显示全部楼层
    感谢楼主分享!
    回复

    使用道具 举报

    您需要登录后才可以回帖 登录 | 立即注册

    本版积分规则

    QQ|Archiver|手机版|小黑屋|影迷乐园

    GMT+8, 2020-11-25 01:19 , Processed in 0.067202 second(s), 28 queries .

    Powered by Discuz! X3.4

    Copyright © 2001-2020, Tencent Cloud.

    快速回复 返回顶部 返回列表