请选择 进入手机版 | 继续访问电脑版

YMLY-影迷乐园-特效字幕 蓝光原盘 1080P 高清动漫电影电视剧

 找回密码
 立即注册
搜索
查看: 190|回复: 21

[大陆] [115+百度][2002][1080P][风云雄霸天下.无台标无水印][国语中字][赵文卓.何润东][44集全][MP4][40.22GB][Wind.and.Cloud.2002.S01.1080P.WEB-DL.H265.AAC]

[复制链接]
  • TA的每日心情
    奋斗
    2020-2-21 00:36
  • 签到天数: 656 天

    [LV.9]以坛为家II

    8125

    主题

    1万

    帖子

    6万

    积分

    超级版主

    与齐同行,是最初的梦想,也是一辈子的执着~

    Rank: 16Rank: 16Rank: 16Rank: 16

    积分
    62683

    内测勋章最佳新人十二生肖之猴VIP包月勋章影迷男神小土豪勋章土豪勋章富甲一方精华勋章金话筒主题达人灌水之王

    发表于 6 天前 | 显示全部楼层 |阅读模式
    下载说明:

    百度云网盘分享极其不稳定,如有链接失效,请第一时间站内短消息通知我,上线后会第一时间补发!请大家多多谅解!电驴链接只能115会员离线下载,其它工具都下载不了!




    ◎译  名 The Storm Riders/Wind and Cloud/雄霸天下+风云必胜/风云之雄霸天下+风云必胜
    ◎片  名 风云
    ◎年  代 2002
    ◎产  地 中国大陆
    ◎类  别 动作 / 奇幻 / 武侠
    ◎语  言 汉语普通话
    ◎上映日期 2002-06-08(中国大陆)
    ◎IMDb评分  6.3/10 from 134 users
    ◎IMDb链接  https://www.imdb.com/title/tt0984171/
    ◎豆瓣评分 7.5/10 from 49861 users
    ◎豆瓣链接 https://movie.douban.com/subject/2982064/
    ◎集  数 44
    ◎导  演 徐进良 Chin-Liang Hsu
    ◎编  剧 马荣成  Wing Shing Ma / 温丽芳 Lifang Wen
    ◎主  演 赵文卓 Man Cheuk Chiu
           何润东 Peter Ho
           千叶真一 Sonny Chiba
           蒋勤勤 Qinqin Jiang
           陶红 Hong Tao
           吴辰君 Annie Wu
           江祖平 Amigo Chiang
           王喜 Hei Wong
           邢岷山 Minshan Xing
           孙兴 Hing Suen
           王翔弘 Xianghong Wang
           何笃霖 Tu-Lin Ho
           卜学亮 Hsueh-Liang Pu
           顾冠忠 Kuan-chung Ku
           杨力 Yang Li
           张志伟 Zhiwei Zhang
           沈保平 Baoping Shen
           李雨泽 Yuze Li
           张衡平 Hengping Zhang
           王锡辉 XIhui Wang
           徐为平 Weiping Xu
           黄品沅 Ruomeng Huang
           刘喜 Xi Liu
           蔡兴麟 Xinglin Cai
           金萍 Ping Jin
           陈冠桦 Pailin Rattanasangsatian
           李小燕 Permanent Bell
           贾石头 Shitou Jia
           王瑜 Yu Wang
           莫美林 Meilin Mok
           王惠五 Huiwu Wang
           田丽 Lily Tien
           李晨 Nic Lee
           左百学 Baixue Zuo
           陈柏瑜 Bo-Yu Chen
           钟明和 Minghe Zhong
           程思寒 Sihan Cheng
           刘金全 Jinquan Liu
           谷金 Jin Gu
           毛庭齐 Tingqi Mao
           龙显蕙 Long Sian-Huei
           尹易凡 Yifan Yin

    ◎标  签 武侠 | 电视剧 | 古装 | 国产电视剧 | 风云 | 大陆 | 中国 | 童年

    ◎简  介

      为了成就天下霸业,天下会帮主雄霸(千叶真一 饰)请泥菩萨为自己批命,获得“金麟岂是池中物,一遇风云便化龙”的十六字真言。所以为了找到风云,雄霸不惜到处杀虐,最后将孩童时候的聂风和步惊云收入身边。正是得了风云之助,雄霸的霸业扩展越来越顺利。时间很快就过去,雄霸的称霸野心越 来越大,不过此时却收到泥菩萨又一次批命送上的“成也风云,败也风云”。不禁令雄霸对身边的聂风(赵文卓 饰)和步惊云(何润东 饰)处处提防,忧心忡忡。雄霸出计,将步惊云喜欢的孔慈嫁给大徒弟秦霜,而孔慈却暗恋着聂风,使得风云二人反目,孔慈也因保护聂风身亡。风云二人也因此先后离开天下会行走江湖。在不断的闯荡中,聂风受童年好友断浪的怂恿决定找雄霸报杀父之仇,而步惊云也因雄霸的步步紧逼对雄霸愤恨有加。最终步惊云意外获得麒麟臂,聂风获得雪饮狂刀,在剑池与雄霸展开了生死大战
    1. General
    2. Format                         : MPEG-4
    3. Format profile                 : Base Media
    4. Codec ID                       : isom (isom/iso2/mp41)
    5. File size                      : 915 MiB
    6. Duration                       : 46 min 2 s
    7. Overall bit rate               : 2 780 kb/s
    8. Writing application            : Lavf58.29.100

    9. Video
    10. ID                             : 1
    11. Format                         : HEVC
    12. Format/Info                    : High Efficiency Video Coding
    13. Format profile                 : Main@L4@High
    14. Codec ID                       : hev1
    15. Codec ID/Info                  : High Efficiency Video Coding
    16. Duration                       : 46 min 2 s
    17. Bit rate                       : 2 648 kb/s
    18. Width                          : 1 424 pixels
    19. Height                         : 1 080 pixels
    20. Display aspect ratio           : 4:3
    21. Frame rate mode                : Constant
    22. Frame rate                     : 25.000 FPS
    23. Color space                    : YUV
    24. Chroma subsampling             : 4:2:0
    25. Bit depth                      : 8 bits
    26. Bits/(Pixel*Frame)             : 0.069
    27. Stream size                    : 872 MiB (95%)
    28. Codec configuration box        : hvcC

    29. Audio
    30. ID                             : 2
    31. Format                         : AAC LC
    32. Format/Info                    : Advanced Audio Codec Low Complexity
    33. Codec ID                       : mp4a-40-2
    34. Duration                       : 46 min 2 s
    35. Bit rate mode                  : Constant
    36. Bit rate                       : 125 kb/s
    37. Channel(s)                     : 2 channels
    38. Channel layout                 : L R
    39. Sampling rate                  : 44.1 kHz
    40. Frame rate                     : 43.066 FPS (1024 SPF)
    41. Compression mode               : Lossy
    42. Stream size                    : 41.1 MiB (4%)
    43. Default                        : Yes
    44. Alternate group                : 1
    复制代码








    购买主题 已有 8 人购买  本主题需向作者支付 50 大洋 才能浏览
    郑重声明:
    本人提供的所有影视作品均是在网上搜集,任何涉及商业盈利目的均不得使用,否则产生的一切后果将由您自己承担!
    本人不对本人所发布的任何内容负任何法律责任!该下载内容仅做宽带测试使用,请在下载后24小时内删除。请购买正版!
    本人列出的文件没有保存在本站的服务器上,本人仅负责连接,本人对被传播文件的内容一无所知。
    如侵犯视频原作者或发行商版权,请联系本人删除!
    回复

    使用道具 举报

  • TA的每日心情
    开心
    4 天前
  • 签到天数: 8 天

    [LV.3]偶尔看看II

    0

    主题

    133

    帖子

    56

    积分

    初级影迷

    Rank: 2

    积分
    56
    发表于 6 天前 | 显示全部楼层
    感谢分享!
    回复

    使用道具 举报

  • TA的每日心情
    开心
    昨天 11:25
  • 签到天数: 11 天

    [LV.3]偶尔看看II

    1

    主题

    48

    帖子

    8

    积分

    入门影迷

    Rank: 1

    积分
    8
    发表于 5 天前 | 显示全部楼层
    感谢分享!
    回复

    使用道具 举报

  • TA的每日心情
    开心
    昨天 02:03
  • 签到天数: 94 天

    [LV.6]常住居民II

    3

    主题

    902

    帖子

    265

    积分

    超级影迷

    Rank: 6Rank: 6

    积分
    265

    小土豪勋章

    发表于 5 天前 | 显示全部楼层
    感谢楼主分享!
    回复

    使用道具 举报

  • TA的每日心情
    开心
    昨天 08:16
  • 签到天数: 138 天

    [LV.7]常住居民III

    18

    主题

    1492

    帖子

    162

    积分

    高级影迷

    Rank: 4

    积分
    162
    发表于 5 天前 | 显示全部楼层
    感谢分享,支持一下
    回复

    使用道具 举报

  • TA的每日心情
    奋斗
    昨天 06:52
  • 签到天数: 191 天

    [LV.7]常住居民III

    5

    主题

    1105

    帖子

    78

    积分

    中级影迷

    Rank: 3Rank: 3

    积分
    78
    发表于 5 天前 | 显示全部楼层
    谢谢楼主分享
    回复

    使用道具 举报

  • TA的每日心情
    开心
    昨天 07:43
  • 签到天数: 114 天

    [LV.6]常住居民II

    1

    主题

    1276

    帖子

    229

    积分

    高级影迷

    Rank: 4

    积分
    229
    发表于 5 天前 | 显示全部楼层
    感谢分享!
    回复

    使用道具 举报

  • TA的每日心情
    奋斗
    3 天前
  • 签到天数: 18 天

    [LV.4]偶尔看看III

    20

    主题

    291

    帖子

    168

    积分

    高级影迷

    Rank: 4

    积分
    168
    发表于 5 天前 | 显示全部楼层
    嘻嘻嘻嘻嘻嘻嘻
    回复

    使用道具 举报

  • TA的每日心情
    开心
    昨天 09:06
  • 签到天数: 40 天

    [LV.5]常住居民I

    0

    主题

    527

    帖子

    32

    积分

    初级影迷

    Rank: 2

    积分
    32
    发表于 5 天前 | 显示全部楼层
    感谢楼主分享!
    回复

    使用道具 举报

  • TA的每日心情
    开心
    1 小时前
  • 签到天数: 140 天

    [LV.7]常住居民III

    1

    主题

    1467

    帖子

    288

    积分

    超级影迷

    Rank: 6Rank: 6

    积分
    288
    发表于 5 天前 | 显示全部楼层
    谢谢楼主分享
    回复

    使用道具 举报

    您需要登录后才可以回帖 登录 | 立即注册

    本版积分规则

    QQ|Archiver|手机版|小黑屋|影迷乐园

    GMT+8, 2020-11-25 01:38 , Processed in 0.064644 second(s), 28 queries .

    Powered by Discuz! X3.4

    Copyright © 2001-2020, Tencent Cloud.

    快速回复 返回顶部 返回列表