请选择 进入手机版 | 继续访问电脑版

YMLY-影迷乐园-特效字幕 蓝光原盘 1080P 高清动漫电影电视剧

 找回密码
 立即注册
搜索
查看: 58|回复: 9

[美国] [115+百度][2019][720P][权力的游戏.冰与火之歌S08.第八季][英语无字幕][6集全][MKV][21.29GB][Game.of.Thrones.S08.2019.720p.BluRay.x264-WiKi]

[复制链接]
  • TA的每日心情
    奋斗
    2020-2-21 00:36
  • 签到天数: 656 天

    [LV.9]以坛为家II

    8125

    主题

    1万

    帖子

    6万

    积分

    超级版主

    与齐同行,是最初的梦想,也是一辈子的执着~

    Rank: 16Rank: 16Rank: 16Rank: 16

    积分
    62684

    内测勋章最佳新人十二生肖之猴VIP包月勋章影迷男神小土豪勋章土豪勋章富甲一方精华勋章金话筒主题达人灌水之王

    发表于 5 天前 | 显示全部楼层 |阅读模式
    下载说明:

    近期百度云和谐的厉害,本剧将采用115网盘的方式分享,只能115网盘会员接收并下载,购买前请看清楚,如需百度云链接请在站内短消息联系我,本人会抽空搬运至百度云网盘,但是需扣除20大洋(论坛币,每天做日常任务可获取)作为搬运费!


    ----转载自ttg,感谢压制和原发布人员,特此鸣谢!----



    ◎译  名 权力的游戏 第八季 / Game of Thrones: The Final Season / 冰与火之歌 第八季 / 权游8
    ◎片  名 Game of Thrones Season 8
    ◎年  代 2019
    ◎产  地 美国
    ◎类  别 剧情 / 奇幻 / 冒险
    ◎语  言 英语
    ◎上映日期 2019-04-14(美国)
    ◎IMDb评分  7.6/10 from 122055 users
    ◎IMDb链接  https://www.imdb.com/title/tt5924366
    ◎豆瓣评分 6.1/10 from 226964 users
    ◎豆瓣链接 https://movie.douban.com/subject/26584183/
    ◎集  数 6
    ◎片  长 60分钟(E1-E2) / 80分钟(E3-E6)
    ◎导  演 米格尔·萨普什尼克 Miguel Sapochnik / 大卫·努特尔 David Nutter / 戴维·贝尼奥夫 David Benioff / D·B·威斯 D.B. Weiss
    ◎编  剧 戴维·贝尼奥夫 David Benioff / D·B·威斯 D.B. Weiss / 乔治·马丁 George R.R. Martin / 戴夫·希尔 Dave Hill / 布莱恩·考格曼 Bryan Cogman
    ◎主  演 艾米莉亚·克拉克 Emilia Clarke
           基特·哈灵顿 Kit Harington
           彼特·丁拉基 Peter Dinklage
           苏菲·特纳 Sophie Turner
           麦茜·威廉姆斯 Maisie Williams
           琳娜·海蒂 Lena Headey
           伊萨克·亨普斯特德-怀特 Isaac Hempstead-Wright
           尼古拉·科斯特-瓦尔道 Nikolaj Coster-Waldau
           约翰·C·布莱德利 John C. Bradley
           阿尔菲·艾伦 Alfie Allen
           皮鲁·埃斯贝克 Pilou Asbæk
           格温多兰·克里斯蒂 Gwendoline Christie
           利亚姆·坎宁安 Liam Cunningham
           娜塔莉·伊曼纽尔 Nathalie Emmanuel
           康勒斯·希尔 Conleth Hill
           罗伊·麦克凯恩 Rory McCann
           杰罗姆·弗林 Jerome Flynn
           克里斯托弗·海维尤 Kristofer Hivju
           约瑟夫·戴浦西 Joe Dempsie
           雅各布·安德森 Jacob Anderson
           伊恩·格雷 Iain Glen
           安东·莱瑟 Anton Lesser
           理查德·多默 Richard Dormer
           杰玛·韦兰 Gemma Whelan
           本·克朗普顿 Ben Crompton
           哈弗波·朱利尔斯·比昂森 Haftór Júlíus Björnsson
           丹尼尔·波特曼 Daniel Portman
           鲁珀特·范西塔特 Rupert Vansittart
           贝拉·拉姆齐 Bella Ramsey


    ◎标  签 HBO | 史诗 | 魔幻 | 美国 | 奇幻 | 经典 | 电视剧 | 剧情

    ◎简  介  

      HBO剧集《权力的游戏》第八季将于2019年4月14日播出,本季共6集。
      故事发展至第八季,重返临冬城的琼恩·雪诺(基特·哈灵顿 Kit Harington 饰)在布兰·史塔克(伊萨克·亨普斯特德-怀特 Isaac Hempstead-Wright 饰)口中得知了自己身 世的秘密,让他与丹妮莉丝·塔格利安(艾米莉亚·克拉克 Emilia Clarke 饰)的关系蒙上了一层冰霜。
      狼家少年们终于迎来了久违的重逢。攸伦将黄金团带给众叛亲离的瑟后试图取得她的信任。临冬城大战一触即发,人类能否战胜夜王?

    ◎获奖情况  

      第77届金球奖(2020)
      电视类 剧情类剧集最佳男主角(提名) 基特·哈灵顿

      第47届动画安妮奖(2020)
      最佳真人电影动画角色(提名)

      第71届黄金时段艾美奖(2019)
      剧情类 最佳剧集
      剧情类 最佳男主角(提名) 基特·哈灵顿
      剧情类 最佳女主角(提名) 艾米莉亚·克拉克
      剧情类 最佳男配角 彼特·丁拉基
      剧情类 最佳男配角(提名) 尼古拉·科斯特-瓦尔道 / 阿尔菲·艾伦
      剧情类 最佳女配角(提名) 苏菲·特纳 / 琳娜·海蒂 / 格温多兰·克里斯蒂 / 麦茜·威廉姆斯
      剧情类 最佳客串女演员(提名) 卡里斯·范·侯登
      剧情类 最佳导演(提名) 戴维·贝尼奥夫 / 米格尔·萨普什尼克 / 大卫·纳特 / D·B·威斯
      剧情类 最佳编剧(提名) 戴维·贝尼奥夫 / D·B·威斯

      第28届MTV电影奖(2019)
      MTV电影奖 年度剧集
      MTV电影奖 剧集最佳表演(提名) 艾米莉亚·克拉克
      MTV电影奖 最佳打斗(提名) 麦茜·威廉姆斯

      第72届美国导演工会奖(2020)
      最佳剧情类剧集导演(提名) 米格尔·萨普什尼克 / 大卫·纳特

      第26届美国演员工会奖(2020)
      电视奖 剧情类剧集最佳男演员 彼特·丁拉基
      电视奖 剧情类剧集最佳群戏(提名)
      剧集最佳特技群戏

      第31届美国制片人工会奖(2020)
      最佳剧情类剧集制片人奖(提名)

      第70届美国剪辑工会奖(2020)
      非商业剧情电视最佳剪辑

      第24届美国艺术指导工会奖(2020)
      电视奖 最佳1小时历史剧/幻想类单镜头剧集艺术指导(提名) Deborah Riley

      第22届美国服装设计工会奖(2020)
      科幻/奇幻题材剧集最佳服装设计 Michele Clapton

      第7届美国化妆及发型设计工会奖(2020)
      电视类最佳年代戏化妆(提名)
      电视类最佳特效化妆(提名)

      第67届美国音效剪辑协会奖(2020)
      金卷轴奖 Best Sound Editing in Television - Long Form: Dialogue and ADR(提名)
      金卷轴奖 Best Sound Editing in Television - Long Form: Sound Effects & Foley(提名)
      金卷轴奖 Best Sound Editing in Television - Long Form: Musical

      第56届美国声音效果协会奖(2020)
      1小时剧集最佳音效

      第10届美国评论家选择电视奖(2020)
      剧情类最佳剧集(提名)
      剧情类最佳男主角(提名) 基特·哈灵顿
      剧情类最佳男配角(提名) 彼特·丁拉基
      剧情类最佳女配角(提名) 格温多兰·克里斯蒂

      第20届美国电影学会奖(2019)
      年度佳剧

      第24届金卫星奖(2020)
      电视部门 最佳剧集-通类(提名)

      第5届豆瓣电影年度榜单(2018)
      最值得期待的剧集(提名)
    1. General
    2. Unique ID                      : 184388384923140215965785949161179876811 (0x8AB7E943E222939B83FD80918BF88DCB)
    3. Format                         : Matroska
    4. Format version                 : Version 4
    5. File size                      : 2.90 GiB
    6. Duration                       : 57 min 59 s
    7. Overall bit rate               : 7 155 kb/s
    8. Encoded date                   : UTC 2019-11-30 00:31:17
    9. Writing application            : mkvmerge v36.0.0 ('Is That Jazz?') 64-bit
    10. Writing library                : libebml v1.3.9 + libmatroska v1.5.2

    11. Video
    12. ID                             : 1
    13. Format                         : AVC
    14. Format/Info                    : Advanced Video Codec
    15. Format profile                 : High@L4.1
    16. Format settings                : CABAC / 9 Ref Frames
    17. Format settings, CABAC         : Yes
    18. Format settings, Reference fra : 9 frames
    19. Codec ID                       : V_MPEG4/ISO/AVC
    20. Duration                       : 57 min 59 s
    21. Bit rate                       : 6 500 kb/s
    22. Width                          : 1 280 pixels
    23. Height                         : 720 pixels
    24. Display aspect ratio           : 16:9
    25. Frame rate mode                : Constant
    26. Frame rate                     : 23.976 FPS
    27. Color space                    : YUV
    28. Chroma subsampling             : 4:2:0
    29. Bit depth                      : 8 bits
    30. Scan type                      : Progressive
    31. Bits/(Pixel*Frame)             : 0.294
    32. Stream size                    : 2.64 GiB (91%)
    33. Writing library                : x264 core 129 r2245 bc13772
    34. Encoding settings              : cabac=1 / ref=9 / deblock=1:-3:-3 / analyse=0x3:0x133 / me=umh / subme=11 / psy=1 / psy_rd=1.00:0.00 / mixed_ref=1 / me_range=32 / chroma_me=1 / trellis=2 / 8x8dct=1 / cqm=0 / deadzone=21,11 / fast_pskip=0 / chroma_qp_offset=-2 / threads=12 / lookahead_threads=2 / sliced_threads=0 / nr=0 / decimate=1 / interlaced=0 / bluray_compat=0 / constrained_intra=0 / bframes=8 / b_pyramid=2 / b_adapt=2 / b_bias=0 / direct=3 / weightb=1 / open_gop=0 / weightp=2 / keyint=250 / keyint_min=23 / scenecut=40 / intra_refresh=0 / rc_lookahead=60 / rc=2pass / mbtree=1 / bitrate=6500 / ratetol=1.0 / qcomp=0.70 / qpmin=0 / qpmax=69 / qpstep=4 / cplxblur=20.0 / qblur=0.5 / ip_ratio=1.40 / aq=1:0.80
    35. Language                       : English
    36. Default                        : Yes
    37. Forced                         : No

    38. Audio
    39. ID                             : 2
    40. Format                         : AC-3
    41. Format/Info                    : Audio Coding 3
    42. Commercial name                : Dolby Digital
    43. Codec ID                       : A_AC3
    44. Duration                       : 57 min 59 s
    45. Bit rate mode                  : Constant
    46. Bit rate                       : 640 kb/s
    47. Channel(s)                     : 6 channels
    48. Channel layout                 : L R C LFE Ls Rs
    49. Sampling rate                  : 48.0 kHz
    50. Frame rate                     : 31.250 FPS (1536 SPF)
    51. Bit depth                      : 16 bits
    52. Compression mode               : Lossy
    53. Stream size                    : 265 MiB (9%)
    54. Language                       : English
    55. Service kind                   : Complete Main
    56. Default                        : Yes
    57. Forced                         : No
    复制代码



    购买主题 本主题需向作者支付 20 大洋 才能浏览
    郑重声明:
    本人提供的所有影视作品均是在网上搜集,任何涉及商业盈利目的均不得使用,否则产生的一切后果将由您自己承担!
    本人不对本人所发布的任何内容负任何法律责任!该下载内容仅做宽带测试使用,请在下载后24小时内删除。请购买正版!
    本人列出的文件没有保存在本站的服务器上,本人仅负责连接,本人对被传播文件的内容一无所知。
    如侵犯视频原作者或发行商版权,请联系本人删除!
    回复

    使用道具 举报

  • TA的每日心情
    开心
    昨天 07:43
  • 签到天数: 114 天

    [LV.6]常住居民II

    1

    主题

    1276

    帖子

    229

    积分

    高级影迷

    Rank: 4

    积分
    229
    发表于 4 天前 | 显示全部楼层
    感谢分享!
    回复

    使用道具 举报

  • TA的每日心情
    开心
    昨天 08:16
  • 签到天数: 138 天

    [LV.7]常住居民III

    18

    主题

    1492

    帖子

    162

    积分

    高级影迷

    Rank: 4

    积分
    162
    发表于 4 天前 | 显示全部楼层
    感谢分享,支持一下
    回复

    使用道具 举报

  • TA的每日心情
    开心
    昨天 08:16
  • 签到天数: 138 天

    [LV.7]常住居民III

    18

    主题

    1492

    帖子

    162

    积分

    高级影迷

    Rank: 4

    积分
    162
    发表于 4 天前 | 显示全部楼层
    感谢分享,支持一下
    回复

    使用道具 举报

  • TA的每日心情
    开心
    昨天 12:56
  • 签到天数: 192 天

    [LV.7]常住居民III

    1

    主题

    1790

    帖子

    118

    积分

    中级影迷

    Rank: 3Rank: 3

    积分
    118
    发表于 4 天前 | 显示全部楼层
    多谢分享!
    回复

    使用道具 举报

  • TA的每日心情
    开心
    昨天 02:03
  • 签到天数: 94 天

    [LV.6]常住居民II

    3

    主题

    902

    帖子

    265

    积分

    超级影迷

    Rank: 6Rank: 6

    积分
    265

    小土豪勋章

    发表于 4 天前 | 显示全部楼层
    感谢分享!
    回复

    使用道具 举报

  • TA的每日心情

    昨天 09:09
  • 签到天数: 226 天

    [LV.7]常住居民III

    3

    主题

    1187

    帖子

    300

    积分

    超级影迷

    Rank: 6Rank: 6

    积分
    300

    小土豪勋章

    发表于 4 天前 | 显示全部楼层
    感谢分享!
    回复

    使用道具 举报

  • TA的每日心情
    开心
    1 小时前
  • 签到天数: 96 天

    [LV.6]常住居民II

    0

    主题

    200

    帖子

    34

    积分

    初级影迷

    Rank: 2

    积分
    34
    发表于 4 天前 | 显示全部楼层
    感谢楼主分享!
    回复

    使用道具 举报

  • TA的每日心情
    开心
    2 小时前
  • 签到天数: 140 天

    [LV.7]常住居民III

    1

    主题

    1467

    帖子

    288

    积分

    超级影迷

    Rank: 6Rank: 6

    积分
    288
    发表于 3 天前 | 显示全部楼层
    谢谢楼主分享
    回复

    使用道具 举报

  • TA的每日心情
    开心
    1 小时前
  • 签到天数: 4 天

    [LV.2]偶尔看看I

    0

    主题

    98

    帖子

    36

    积分

    初级影迷

    Rank: 2

    积分
    36
    发表于 昨天 23:12 | 显示全部楼层
    谢谢分享!
    回复

    使用道具 举报

    您需要登录后才可以回帖 登录 | 立即注册

    本版积分规则

    QQ|Archiver|手机版|小黑屋|影迷乐园

    GMT+8, 2020-11-25 02:31 , Processed in 0.066536 second(s), 28 queries .

    Powered by Discuz! X3.4

    Copyright © 2001-2020, Tencent Cloud.

    快速回复 返回顶部 返回列表