请选择 进入手机版 | 继续访问电脑版

YMLY-影迷乐园-特效字幕 蓝光原盘 1080P 高清动漫电影电视剧

 找回密码
 立即注册
搜索
查看: 69|回复: 10

[美国] [115+百度][2019][1080P][正能小飞马.幻想快乐S02.第二季][人人双语字幕][10集全][MKV][14.11GB][Happy!.S02.2019.BluRay.1080p.MNHD-FRDS]

[复制链接]
  • TA的每日心情
    奋斗
    2020-2-21 00:36
  • 签到天数: 656 天

    [LV.9]以坛为家II

    8185

    主题

    1万

    帖子

    6万

    积分

    超级版主

    与齐同行,是最初的梦想,也是一辈子的执着~

    Rank: 16Rank: 16Rank: 16Rank: 16

    积分
    64082

    内测勋章最佳新人十二生肖之猴VIP包月勋章影迷男神小土豪勋章土豪勋章富甲一方精华勋章金话筒主题达人灌水之王

    发表于 2020-11-21 15:57:48 | 显示全部楼层 |阅读模式
    下载说明:

    百度网盘分享极其不稳定,如有链接失效,请第一时间站内短消息通知我,上线后会第一时间补发!请大家多多谅解!电驴链接只能115会员离线下载,其它工具都下载不了!


    ----转载自FRDS,感谢压制和原发布人员,特此鸣谢!----


    制作说明:

    Happy!.S02.2019.1080p.Bluray.AVC.DTS-HD.MA.5.1.REMUX-FRDS

    Happy! S02 1080p FRA Blu-ray AVC DTS-HD MA 5.1-1111@CHDBits
    主要各处都找不到Remux,偷懒偷不了就只好自己顺便Remux一下
    理论以后其他作品在别组有Remux的情况下不会再做
    Rumxer:ted423




    ◎译  名 幻想快乐 第二季 / 正能小飞马
    ◎片  名 Happy! Season 2
    ◎年  代 2019
    ◎产  地 美国
    ◎类  别 喜剧 / 犯罪 / 奇幻
    ◎语  言 英语
    ◎上映日期 2019-03-27(美国)
    ◎IMDb评分  8.2/10 from 593 users
    ◎IMDb链接  https://www.imdb.com/title/tt7940892
    ◎豆瓣评分 8.1/10 from 393 users
    ◎豆瓣链接 https://movie.douban.com/subject/30134200/
    ◎集  数 10
    ◎片  长 48分钟
    ◎导  演 布莱恩·泰勒 Brian Taylor / 韦恩·叶 Wayne Yip / 玛莉安娜·帕卡 Marianna Palka
    ◎编  剧 布莱恩·泰勒 Brian Taylor / 格兰特·莫里森 Grant Morrison
    ◎主  演 克里斯托弗·米洛尼 Christopher Meloni
           莉莉·米罗基尼克 Lili Mirojnick
           里特奇·科斯特 Ritchie Coster
           帕顿·奥斯瓦尔特 Patton Oswalt
           布莱丝·洛伦佐 Bryce Lorenzo
           派特里克·费斯克勒 Patrick Fischler
           梅迪纳·森戈尔 Medina Senghore
           克里斯托弗·菲茨杰拉德 Christopher Fitzgerald
           黛比·玛扎 Debi Mazar
           安东尼亚雷伊 Antonia Rey
           德维尔文·大卫 Dwelvan David
           保罗·怀特 Paul Wight
           卡莉·沙利文 Carly Sullivan


    ◎标  签 奇幻 | 喜剧 | 黑色幽默 | 美国 | 犯罪 | 2019 | Syfy | 悬疑

    ◎简  介  

      即将季终的Syfy剧《#幻想快乐# HAPPY!》获电视台续订第二季。
      根据同名漫画改编的《幻想快乐》由Chris Meloni饰演主角Nick Sax,他曾经是大城警察的一位明星警探,但他失去一切后,现在成了一个破产﹑堕落﹑为黑帮工作的雇佣杀手,他赚的钱不多,仅够他能买醉及毒品。但在一次刺杀出错后,他的生活被一只幻想、正能量的蓝色独角小飞马Happy(Patton Oswalt声演)彻底改变。
    1. General
    2. Unique ID                   : 332726347784391550629022245972681194521 (0xFA50C37E7718B9B28B07F436DECC7C19)
    3. Format                      : Matroska
    4. Format version              : Version 4
    5. File size                   : 1.26 GiB
    6. Duration                    : 48 min 25 s
    7. Overall bit rate            : 3 738 kb/s
    8. Encoded date                : UTC 2020-11-07 16:44:35
    9. Writing application         : mkvmerge v51.0.0 ('I Wish') 64-bit
    10. Writing library             : libebml v1.4.0 + libmatroska v1.6.2

    11. Video
    12. ID                          : 1
    13. Format                      : HEVC
    14. Format/Info                 : High Efficiency Video Coding
    15. Format profile              : Main 10@L5.1@High
    16. HDR format                  : SMPTE ST 2086, HDR10 compatible
    17. Codec ID                    : V_MPEGH/ISO/HEVC
    18. Duration                    : 48 min 25 s
    19. Bit rate                    : 2 997 kb/s
    20. Width                       : 1 920 pixels
    21. Height                      : 1 080 pixels
    22. Display aspect ratio        : 16:9
    23. Frame rate mode             : Constant
    24. Frame rate                  : 23.976 (24000/1001) FPS
    25. Color space                 : YUV
    26. Chroma subsampling          : 4:2:0 (Type 2)
    27. Bit depth                   : 10 bits
    28. Bits/(Pixel*Frame)          : 0.060
    29. Stream size                 : 1.01 GiB (80%)
    30. Writing library             : x265 3.4+12-g9103319fc:[Windows][MSVC 1927][64 bit] 10bit
    31. Encoding settings           : cpuid=1111039 / frame-threads=4 / numa-pools=16 / wpp / pmode / no-pme / no-psnr / no-ssim / log-level=2 / input-csp=1 / input-res=1920x1080 / interlace=0 / total-frames=69651 / level-idc=51 / high-tier=1 / uhd-bd=0 / ref=6 / no-allow-non-conformance / repeat-headers / annexb / aud / hrd / info / hash=0 / no-temporal-layers / open-gop / min-keyint=23 / keyint=250 / gop-lookahead=0 / bframes=16 / b-adapt=2 / b-pyramid / bframe-bias=0 / rc-lookahead=60 / lookahead-slices=0 / scenecut=40 / hist-scenecut=0 / radl=0 / no-splice / no-intra-refresh / ctu=32 / min-cu-size=8 / no-rect / no-amp / max-tu-size=32 / tu-inter-depth=4 / tu-intra-depth=4 / limit-tu=0 / rdoq-level=2 / dynamic-rd=0.00 / no-ssim-rd / signhide / no-tskip / nr-intra=0 / nr-inter=0 / no-constrained-intra / strong-intra-smoothing / max-merge=5 / limit-refs=0 / no-limit-modes / me=3 / subme=5 / merange=57 / temporal-mvp / no-frame-dup / no-hme / weightp / weightb / no-analyze-src-pics / deblock=-3:-3 / no-sao / no-sao-non-deblock / rd=4 / selective-sao=0 / no-early-skip / no-rskip / no-fast-intra / no-tskip-fast / no-cu-lossless / b-intra / no-splitrd-skip / rdpenalty=0 / psy-rd=1.25 / psy-rdoq=1.00 / no-rd-refine / no-lossless / cbqpoffs=0 / crqpoffs=0 / rc=crf / crf=22.0 / qcomp=0.60 / qpstep=4 / stats-write=0 / stats-read=0 / vbv-maxrate=160000 / vbv-bufsize=160000 / vbv-init=0.9 / crf-max=0.0 / crf-min=0.0 / ipratio=1.30 / pbratio=1.20 / aq-mode=4 / aq-strength=1.00 / no-cutree / zone-count=0 / no-strict-cbr / qg-size=8 / no-rc-grain / qpmax=69 / qpmin=0 / no-const-vbv / sar=0 / overscan=0 / videoformat=5 / range=0 / colorprim=9 / transfer=16 / colormatrix=9 / chromaloc=1 / chromaloc-top=2 / chromaloc-bottom=2 / display-window=0 / master-display=G(13250,34500)B(7500,3000)R(34000,16000)WP(15635,16450)L(10000000,50) / cll=1000,400 / min-luma=0 / max-luma=1023 / log2-max-poc-lsb=8 / vui-timing-info / vui-hrd-info / slices=1 / no-opt-qp-pps / no-opt-ref-list-length-pps / no-multi-pass-opt-rps / scenecut-bias=0.05 / hist-threshold=0.01 / no-opt-cu-delta-qp / no-aq-motion / hdr10 / hdr10-opt / no-dhdr10-opt / no-idr-recovery-sei / analysis-reuse-level=0 / analysis-save-reuse-level=0 / analysis-load-reuse-level=0 / scale-factor=0 / refine-intra=0 / refine-inter=0 / refine-mv=1 / refine-ctu-distortion=0 / no-limit-sao / ctu-info=0 / no-lowpass-dct / refine-analysis-type=0 / copy-pic=1 / max-ausize-factor=1.0 / no-dynamic-refine / no-single-sei / no-hevc-aq / no-svt / no-field / qp-adaptation-range=1.00 / no-scenecut-aware-qpconformance-window-offsets / right=0 / bottom=0 / decoder-max-rate=0
    32. Default                     : Yes
    33. Forced                      : No
    34. Color range                 : Limited
    35. Color primaries             : BT.2020
    36. Transfer characteristics    : PQ
    37. Matrix coefficients         : BT.2020 non-constant
    38. Mastering display color pri : Display P3
    39. Mastering display luminance : min: 0.0050 cd/m2, max: 1000 cd/m2
    40. Maximum Content Light Level : 1000 cd/m2
    41. Maximum Frame-Average Light : 400 cd/m2

    42. Audio
    43. ID                          : 2
    44. Format                      : E-AC-3
    45. Format/Info                 : Enhanced AC-3
    46. Commercial name             : Dolby Digital Plus
    47. Codec ID                    : A_EAC3
    48. Duration                    : 48 min 24 s
    49. Bit rate mode               : Constant
    50. Bit rate                    : 640 kb/s
    51. Channel(s)                  : 6 channels
    52. Channel layout              : L R C LFE Ls Rs
    53. Sampling rate               : 48.0 kHz
    54. Frame rate                  : 31.250 FPS (1536 SPF)
    55. Compression mode            : Lossy
    56. Stream size                 : 222 MiB (17%)
    57. Language                    : English
    58. Service kind                : Complete Main
    59. Default                     : Yes
    60. Forced                      : No

    61. Text #1
    62. ID                          : 3
    63. ID in the original source m : 4608 (0x1200)
    64. Format                      : PGS
    65. Muxing mode                 : zlib
    66. Codec ID                    : S_HDMV/PGS
    67. Codec ID/Info               : Picture based subtitle format used on BDs/HD-DVDs
    68. Duration                    : 47 min 55 s
    69. Bit rate                    : 36.1 kb/s
    70. Count of elements           : 1252
    71. Stream size                 : 12.4 MiB (1%)
    72. Language                    : French
    73. Default                     : No
    74. Forced                      : No
    75. Original source medium      : Blu-ray

    76. Text #2
    77. ID                          : 4
    78. ID in the original source m : 4609 (0x1201)
    79. Format                      : PGS
    80. Muxing mode                 : zlib
    81. Codec ID                    : S_HDMV/PGS
    82. Codec ID/Info               : Picture based subtitle format used on BDs/HD-DVDs
    83. Duration                    : 1 s 43 ms
    84. Bit rate                    : 13.6 kb/s
    85. Count of elements           : 2
    86. Stream size                 : 1.73 KiB (0%)
    87. Language                    : French
    88. Default                     : No
    89. Forced                      : No
    90. Original source medium      : Blu-ray

    91. Text #3
    92. ID                          : 5
    93. ID in the original source m : 4610 (0x1202)
    94. Format                      : PGS
    95. Muxing mode                 : zlib
    96. Codec ID                    : S_HDMV/PGS
    97. Codec ID/Info               : Picture based subtitle format used on BDs/HD-DVDs
    98. Duration                    : 47 min 55 s
    99. Bit rate                    : 30.9 kb/s
    100. Count of elements           : 1243
    101. Stream size                 : 10.6 MiB (1%)
    102. Title                       : CHS
    103. Language                    : Chinese
    104. Default                     : No
    105. Forced                      : No
    106. Original source medium      : Blu-ray

    107. Text #4
    108. ID                          : 6
    109. ID in the original source m : 4611 (0x1203)
    110. Format                      : PGS
    111. Muxing mode                 : zlib
    112. Codec ID                    : S_HDMV/PGS
    113. Codec ID/Info               : Picture based subtitle format used on BDs/HD-DVDs
    114. Duration                    : 47 min 55 s
    115. Bit rate                    : 49.4 kb/s
    116. Count of elements           : 1243
    117. Stream size                 : 16.9 MiB (1%)
    118. Title                       : chs&eng
    119. Language                    : Chinese
    120. Default                     : Yes
    121. Forced                      : No
    122. Original source medium      : Blu-ray

    123. Text #5
    124. ID                          : 7
    125. ID in the original source m : 4612 (0x1204)
    126. Format                      : PGS
    127. Muxing mode                 : zlib
    128. Codec ID                    : S_HDMV/PGS
    129. Codec ID/Info               : Picture based subtitle format used on BDs/HD-DVDs
    130. Duration                    : 47 min 55 s
    131. Bit rate                    : 32.5 kb/s
    132. Count of elements           : 1243
    133. Stream size                 : 11.1 MiB (1%)
    134. Title                       : CHT
    135. Language                    : Chinese
    136. Default                     : No
    137. Forced                      : No
    138. Original source medium      : Blu-ray

    139. Text #6
    140. ID                          : 8
    141. ID in the original source m : 4613 (0x1205)
    142. Format                      : PGS
    143. Muxing mode                 : zlib
    144. Codec ID                    : S_HDMV/PGS
    145. Codec ID/Info               : Picture based subtitle format used on BDs/HD-DVDs
    146. Duration                    : 47 min 55 s
    147. Bit rate                    : 51.1 kb/s
    148. Count of elements           : 1243
    149. Stream size                 : 17.5 MiB (1%)
    150. Title                       : cht&eng
    151. Language                    : Chinese
    152. Default                     : No
    153. Forced                      : No
    154. Original source medium      : Blu-ray

    155. Menu
    156. 00:00:00.000                : en:第 01 章
    157. 00:15:50.324                : en:第 02 章
    158. 00:24:51.072                : en:第 03 章
    159. 00:34:35.990                : en:第 04 章
    复制代码


    截图仅为给大家知道字幕的样式,并非电影的画质。







    购买主题 已有 3 人购买  本主题需向作者支付 30 大洋 才能浏览
    郑重声明:
    本人提供的所有影视作品均是在网上搜集,任何涉及商业盈利目的均不得使用,否则产生的一切后果将由您自己承担!
    本人不对本人所发布的任何内容负任何法律责任!该下载内容仅做宽带测试使用,请在下载后24小时内删除。请购买正版!
    本人列出的文件没有保存在本站的服务器上,本人仅负责连接,本人对被传播文件的内容一无所知。
    如侵犯视频原作者或发行商版权,请联系本人删除!
    回复

    使用道具 举报

  • TA的每日心情
    开心
    3 小时前
  • 签到天数: 102 天

    [LV.6]常住居民II

    0

    主题

    220

    帖子

    34

    积分

    初级影迷

    Rank: 2

    积分
    34
    发表于 2020-11-21 17:07:57 | 显示全部楼层
    感谢楼主分享!
    回复

    使用道具 举报

  • TA的每日心情
    慵懒
    昨天 08:35
  • 签到天数: 174 天

    [LV.7]常住居民III

    4

    主题

    1070

    帖子

    94

    积分

    中级影迷

    Rank: 3Rank: 3

    积分
    94
    发表于 2020-11-21 19:01:29 | 显示全部楼层
    谢谢分享!
    回复

    使用道具 举报

  • TA的每日心情
    开心
    3 小时前
  • 签到天数: 318 天

    [LV.8]以坛为家I

    60

    主题

    1242

    帖子

    178

    积分

    高级影迷

    Rank: 4

    积分
    178
    发表于 2020-11-21 19:32:18 | 显示全部楼层
    两季两发,真心不错
    回复

    使用道具 举报

  • TA的每日心情
    慵懒
    昨天 01:36
  • 签到天数: 85 天

    [LV.6]常住居民II

    1

    主题

    1211

    帖子

    92

    积分

    中级影迷

    Rank: 3Rank: 3

    积分
    92
    发表于 2020-11-21 20:51:41 | 显示全部楼层
    感谢楼主分享!
    回复

    使用道具 举报

  • TA的每日心情
    开心
    1 小时前
  • 签到天数: 146 天

    [LV.7]常住居民III

    1

    主题

    1528

    帖子

    299

    积分

    超级影迷

    Rank: 6Rank: 6

    积分
    299
    发表于 2020-11-21 22:31:40 | 显示全部楼层
    谢谢楼主分享
    回复

    使用道具 举报

  • TA的每日心情
    开心
    4 天前
  • 签到天数: 104 天

    [LV.6]常住居民II

    4

    主题

    1042

    帖子

    299

    积分

    超级影迷

    Rank: 6Rank: 6

    积分
    299
    发表于 2020-11-21 23:56:10 | 显示全部楼层
    感谢分享!
    回复

    使用道具 举报

  • TA的每日心情
    开心
    2 小时前
  • 签到天数: 101 天

    [LV.6]常住居民II

    3

    主题

    975

    帖子

    288

    积分

    超级影迷

    Rank: 6Rank: 6

    积分
    288

    小土豪勋章

    发表于 2020-11-22 07:55:50 | 显示全部楼层
    感谢分享!
    回复

    使用道具 举报

  • TA的每日心情
    开心
    昨天 21:13
  • 签到天数: 144 天

    [LV.7]常住居民III

    18

    主题

    1550

    帖子

    174

    积分

    高级影迷

    Rank: 4

    积分
    174
    发表于 2020-11-22 11:09:59 | 显示全部楼层
    感谢分享,支持一下
    回复

    使用道具 举报

  • TA的每日心情
    开心
    1 小时前
  • 签到天数: 146 天

    [LV.7]常住居民III

    1

    主题

    1528

    帖子

    299

    积分

    超级影迷

    Rank: 6Rank: 6

    积分
    299
    发表于 2020-11-22 11:37:45 | 显示全部楼层
    谢谢楼主分享
    回复

    使用道具 举报

    您需要登录后才可以回帖 登录 | 立即注册

    本版积分规则

    QQ|Archiver|手机版|小黑屋|影迷乐园

    GMT+8, 2020-12-1 04:08 , Processed in 0.110228 second(s), 28 queries .

    Powered by Discuz! X3.4

    Copyright © 2001-2020, Tencent Cloud.

    快速回复 返回顶部 返回列表