请选择 进入手机版 | 继续访问电脑版

YMLY-影迷乐园-特效字幕 蓝光原盘 1080P 高清动漫电影电视剧

 找回密码
 立即注册
搜索
查看: 1613|回复: 64

[日本] [百度][2000][1080P][犬夜叉 TV版+完结篇+剧场版.音乐CD][165集+完结篇26集+4部剧场版][国粤日英四音轨.中文字幕][85GB][MKV][BDRip.HEVC.AC3]

  [复制链接]
  • TA的每日心情
    奋斗
    2021-1-10 16:46
  • 签到天数: 51 天

    [LV.5]常住居民I

    46

    主题

    233

    帖子

    854

    积分

    资深影迷

    Rank: 10Rank: 10Rank: 10

    积分
    854
    发表于 2020-12-22 12:15:19 | 显示全部楼层 |阅读模式
    小体积高画质版本,x265-10bit编码。其中TV版165集是国日英三音轨,完结篇和4部剧场版是国粤日英四音轨。TV版字幕取自灵感动漫,特此感谢。

    2021.2.23更新:完结篇从原来的HDTV更换为画质更好的蓝光片源,增加音乐CD。



    ◎译  名 Inuyasha / いぬやしゃ
    ◎片  名 犬夜叉
    ◎年  代 2000
    ◎产  地 日本
    ◎类  别 剧情 / 喜剧 / 动作 / 爱情 / 动画 / 惊悚 / 奇幻 / 冒险
    ◎语  言 日语 / 英语
    ◎上映日期 2000-10-16(日本)
    ◎IMDb评分  7.9/10 from 14120 users
    ◎IMDb链接  https://www.imdb.com/title/tt0290223
    ◎豆瓣评分 9.0/10 from 74407 users
    ◎豆瓣链接 https://movie.douban.com/subject/1464448/
    ◎集  数 167
    ◎片  长 24分钟
    ◎导  演 青木康直 Aoki Yasunao / 池田成 Masashi Ikeda / 石原立也 Tatsuya Ishihara / 武本康弘 Yasuhiro Takemoto / 菱田正和 Masakazu Hishida / 小仓宏文 Hirofumi Ogura / 森邦宏 Mori Kunihiro / 铃木薰 Kaoru Suzuki / 鸟羽聪 Toba Akira / 福本洁 Fukumoto Kiyoshi / 菱川直树 Hishikawa Naoki / 池端隆史 Ikehata Takashi / 松井仁之 Matsui Hitoyuki / 佐藤照雄 Satou Teruo / 西森章 Nishimori Akira
    ◎编  剧 武上纯希 Junki Takegami / 千叶克彦 Chiba Katsuhiko / 大和屋晓 Akatsuki Yamatoya / 山田隆司 Yamada Takashi / 远藤明范 Endou Akinori / 高桥留美子 Rumiko Takahashi / 太田爱 Ai Ohta
    ◎主  演 山口胜平 Kappei Yamaguchi
           雪野五月 Satsuki Yukino
           辻谷耕史 Kôji Tsujitani
           桑岛法子 Houko Kuwashima
           渡边久美子 Kumiko Watanabe
           日高法子 Noriko Hidaka
           成田剑 Ken Narita
           能登麻美子 Mamiko Noto
           长岛雄一 Yûichi Nagashima
           森川智之 Toshiyuki Morikawa
           矢岛晶子 Akiko Yajima
           松野太纪 Taiki Matsuno
           京田尚子 Hisako Kyôda
           绪方贤一 Kenichi Ogata
           野上尤加奈 Yukana Nogami
           小林爱 Ai Kobayashi
           草尾毅 Takeshi Kusao
           杉田智和 Tomokazu Sugita
           平田广明 Hiroaki Hirata
           折笠爱 Ai Orikasa
           家中宏 Hiroshi Yanaka
           真殿光昭 Mitsuaki Madono
           石田彰 Akira Ishida
           钉宫理惠 Rie Kugimiya
           子安武人 Takehito Koyasu
           中井和哉 Kazuya Nakai
           井上和彦 Kazuhiko Inoue
           斋藤千和 Chiwa Saito
           关俊彦 Toshihiko Seki
           大谷育江 Ikue Ootani
           折笠富美子 Fumiko Orikasa
           吉野裕行 Hiroyuki Yoshino
           井上喜久子 Kikuko Inoue
           大原沙耶香 Sayaka Ohara
           斋贺光希 Mitsuki Saiga
           生天目仁美 Hitomi Nabatame
           岸尾大辅 Daisuke Kishio
           柚木凉香 Ryôka Yuzuki
           立木文彦 Fumihiko Tachiki
           今井麻美 Asami Imai
           山崎和佳奈 Wakana Yamazaki
           佐佐木望 Nozomu Sasaki
           山口由里子 Yuriko Yamaguchi
           神奈延年 Nobutoshi Canna
           高桥智秋 Chiaki Takahashi
           藤田淑子 Toshiko Fujita
           皆口裕子 Yûko Minaguchi
           鹤广美 Hiromi Tsuru
           嘉数由美 Yumi Kakazu
           水桥香织 Kaori Mizuhashi
           青野武 Takeshi Aono
           上田祐司 Yûji Ueda
           水谷优子 Yûko Mizutani
           胜生真沙子 Masako Katsuki
           冬马由美 Yumi Tôma
           斋藤彩夏 Ayaka Saito
           小林由美子 Yumiko Kobayashi
           清水香里 Kaori Shimizu
           熊井统子 Motoko Kumai
           小樱悦子 Etsuko Kozakura
           岩田光央 Mitsuo Iwata
           二又一成 Issei Futamata
           田口宏子 Hiroko Taguchi
           鳕子 Tarako
           稻田彻 Tetsu Inada
           天野由梨 Yuri Amano
           宫本充 Mitsuru Miyamoto
           乡里大辅 Daisuke Gôri
           麦人 Mugihito
           梁田清之 Kiyoyuki Yanada
           楢桥美纪 Miki Narahashi
           山崎巧 Takumi Yamazaki
           野田顺子 Junko Noda
           白鸟由里 Yuri Shiratori
           岛田敏 Bin Shimada
           八奈见乘儿 Jôji Yanami
           石丸博也 Hiroya Ishimaru
           百百麻子 Asako Dodo
           大林隆介 Ryûnosuke Ôbayashi
           岛津冴子 Saeko Shimazu
           中村大树 Daiki Nakamura
           江川央生 Hisao Egawa
           铃木胜美 Katsumi Suzuki
           宇垣秀成 Hidenari Ugaki
           中岛聪彦 Toshihiko Nakajima
           高木礼子 Reiko Takagi
           中博史 Hiroshi Naka
           泽律雄 Ritsuo Sawa
           田中大文 Tanaka Hirofumi
           若林直美 Naomi Wakabayashi
           齐藤次郎 Saitou Jirou
           麻生美代子 Miyoko Asô
           保村真 Makoto Yasumura
           茂吕田和江 Kaoru Morota
           藤本让 Yuzuru Fujimoto
           太田真一郎 Shinichirô Ôta
           水内清光 Kiyomitsu Mizuuchi
           比嘉久美子 Kumiko Higa
           永野广一 Kôichi Nagano
           铃木琢磨 Takuma Suzuki
           服卷浩司 Haramaki Kouji
           并木伸一 Namiki Shin`ichi
           原泽晃绮 Harasawa Kouki
           松尾贵司 Matsuo Matsuo
           伊藤和晃 Itou Kazuaki
           川中子雅人 Kawanago Masahito
           松本大 Matsumoto Dai
           大西健晴 Oonishi Takeharu
           泽田敏子 Toshiko Sawada
           井田国男 Kunio Iida
           黑田由美 Kuroda Yumi
           松尾银三 Ginzô Matsuo
           北滨晴子 Haruko Kitahama
           藤本隆行 Takayuki Fujimoto
           弥永和子 Kazuko Yanaga
           伊藤实华 Mika Itô
           松本幸 Sachi Matsumoto
           奥田启人 Okuda Keijin
           田中正彦 Masahiko Tanaka
           西前忠久 Tadahisa Saizen
           增田由纪 Yûki Masuda
           相田早矢香 Sayaka Aida
           室园丈裕 Takehiro Murozono
           菅沼久义 Hisayoshi Suganuma
           福岛润 Jun Fukushima
           千叶进步 Susumu Chiba
           花田光 Hikaru Hanada
           野岛裕史 Hirofumi Nojima
           野岛昭生 Akio Nojima
           小村哲生 Komura Tetsuo
           高城元气 Motoki Takagi
           真田麻美 Asami Sanada
           近藤隆 Takashi Kondô
           粟津贵嗣 Takatsugu Awazu


    ◎标  签 犬夜叉 | 动漫 | 高桥留美子 | 日本 | 动画 | 日本动画 | 日本动漫 | 经典

    ◎简  介  

      日暮戈薇是就读于国中三年级的15岁普通小女生,某日,她偶然通过家中神社的枯井来到了500年前的战国时代。时狼烟四起,妖怪横行,世间大地生灵涂炭。戈薇在御神木那里邂逅了被封印的半妖犬夜叉。50年前,意欲变成真正妖怪的犬夜叉,为了得到四魂之玉结识拥有强大灵力的巫女桔梗。经过一段时间相处,两人之间产生了感情。犬夜叉因此希望变成人类,而桔梗也打算在净化完四魂之玉后过回普通人的生活。然而,对桔梗心存邪念的盗贼鬼蜘蛛将灵魂和肉体献给妖怪,继而转生变成邪恶的半妖奈落。在他的一番挑拨下,犬夜叉被桔梗封印在神木之上,重伤的桔梗也在悲伤绝望中死去。桔梗转生的戈薇解救了犬夜叉,却不慎将四魂之玉射成碎片。为了找回碎片,她和犬夜叉以及随后遇到的伙伴:七宝、弥勒、珊瑚踏上了充满艰难险阻的旅途……



    General
    Unique ID                      : 180776862311804492352291576569761722543 (0x88005B73F0DCC85B4D695F456A7970AF)
    Complete name                  : 犬夜叉.E05.BDRip.x265.AC3.mkv
    Format                         : Matroska
    Format version                 : Version 4 / Version 2
    File size                      : 414 MiB
    Duration                       : 24 min 7 s
    Overall bit rate               : 2 397 kb/s
    Encoded date                   : UTC 2020-07-28 10:16:34
    Writing application            : mkvmerge v48.0.0 ('Fortress Around Your Heart') 64-bit
    Writing library                : libebml v1.4.0 + libmatroska v1.6.0

    Video
    ID                             : 1
    Format                         : HEVC
    Format/Info                    : High Efficiency Video Coding
    Format profile                 : Main 10@L4@Main
    Codec ID                       : V_MPEGH/ISO/HEVC
    Duration                       : 24 min 6 s
    Bit rate                       : 1 804 kb/s
    Width                          : 1 444 pixels
    Height                         : 1 080 pixels
    Display aspect ratio           : 4:3
    Original display aspect ratio  : 4:3
    Frame rate mode                : Constant
    Frame rate                     : 23.976 (24000/1001) FPS
    Original frame rate            : 23.000 FPS
    Color space                    : YUV
    Chroma subsampling             : 4:2:0
    Bit depth                      : 10 bits
    Bits/(Pixel*Frame)             : 0.048
    Stream size                    : 311 MiB (75%)
    Default                        : Yes
    Forced                         : No

    Audio #1
    ID                             : 2
    Format                         : AC-3
    Format/Info                    : Audio Coding 3
    Codec ID                       : A_AC3
    Duration                       : 24 min 7 s
    Bit rate mode                  : Constant
    Bit rate                       : 192 kb/s
    Channel(s)                     : 2 channels
    Channel positions              : Front: L R
    Sampling rate                  : 48.0 kHz
    Frame rate                     : 31.250 FPS (1536 SPF)
    Bit depth                      : 16 bits
    Compression mode               : Lossy
    Stream size                    : 33.1 MiB (8%)
    Language                       : Chinese
    Service kind                   : Complete Main
    Default                        : Yes
    Forced                         : No

    Audio #2
    ID                             : 3
    Format                         : AC-3
    Format/Info                    : Audio Coding 3
    Codec ID                       : A_AC3
    Duration                       : 24 min 7 s
    Bit rate mode                  : Constant
    Bit rate                       : 192 kb/s
    Channel(s)                     : 2 channels
    Channel positions              : Front: L R
    Sampling rate                  : 48.0 kHz
    Frame rate                     : 31.250 FPS (1536 SPF)
    Bit depth                      : 16 bits
    Compression mode               : Lossy
    Stream size                    : 33.1 MiB (8%)
    Language                       : Japanese
    Service kind                   : Complete Main
    Default                        : No
    Forced                         : No

    Audio #3
    ID                             : 4
    Format                         : AC-3
    Format/Info                    : Audio Coding 3
    Codec ID                       : A_AC3
    Duration                       : 24 min 7 s
    Bit rate mode                  : Constant
    Bit rate                       : 192 kb/s
    Channel(s)                     : 2 channels
    Channel positions              : Front: L R
    Sampling rate                  : 48.0 kHz
    Frame rate                     : 31.250 FPS (1536 SPF)
    Bit depth                      : 16 bits
    Compression mode               : Lossy
    Stream size                    : 33.1 MiB (8%)
    Language                       : English
    Service kind                   : Complete Main
    Default                        : No
    Forced                         : No

    Text
    ID                             : 5
    Format                         : PGS
    Muxing mode                    : zlib
    Codec ID                       : S_HDMV/PGS
    Codec ID/Info                  : Picture based subtitle format used on BDs/HD-DVDs
    Duration                       : 22 min 28 s
    Bit rate                       : 34.8 kb/s
    Count of elements              : 712
    Stream size                    : 5.60 MiB (1%)
    Language                       : Chinese
    Default                        : Yes
    Forced                         : No



    购买主题 已有 36 人购买  本主题需向作者支付 60 大洋 才能浏览
    回复

    使用道具 举报

  • TA的每日心情
    无聊
    昨天 11:02
  • 签到天数: 170 天

    [LV.7]常住居民III

    8

    主题

    1825

    帖子

    411

    积分

    超级影迷

    Rank: 6Rank: 6

    积分
    411
    发表于 2020-12-22 12:48:41 | 显示全部楼层
    感谢分享好片!!
    回复

    使用道具 举报

  • TA的每日心情
    慵懒
    3 小时前
  • 签到天数: 529 天

    [LV.9]以坛为家II

    0

    主题

    671

    帖子

    110

    积分

    中级影迷

    Rank: 3Rank: 3

    积分
    110
    发表于 2020-12-22 14:31:38 | 显示全部楼层
    谢谢楼主,收下了~~~~~~~~
    回复

    使用道具 举报

  • TA的每日心情

    昨天 17:57
  • 签到天数: 90 天

    [LV.6]常住居民II

    26

    主题

    394

    帖子

    115

    积分

    中级影迷

    Rank: 3Rank: 3

    积分
    115
    发表于 2020-12-22 14:52:53 | 显示全部楼层
    咔咔咔咔咔咔扩扩扩扩扩
    回复

    使用道具 举报

  • TA的每日心情
    开心
    3 天前
  • 签到天数: 76 天

    [LV.6]常住居民II

    1

    主题

    962

    帖子

    63

    积分

    初级影迷

    Rank: 2

    积分
    63
    发表于 2020-12-22 15:24:26 | 显示全部楼层
    感谢分享~~~
    回复

    使用道具 举报

  • TA的每日心情
    奋斗
    昨天 15:35
  • 签到天数: 260 天

    [LV.8]以坛为家I

    7

    主题

    1693

    帖子

    202

    积分

    高级影迷

    Rank: 4

    积分
    202
    发表于 2020-12-22 17:12:06 | 显示全部楼层
    感谢分享~~~
    回复

    使用道具 举报

    该用户从未签到

    0

    主题

    364

    帖子

    36

    积分

    初级影迷

    Rank: 2

    积分
    36
    发表于 2020-12-22 17:16:19 | 显示全部楼层
    非常感谢!!!!
    回复

    使用道具 举报

    该用户从未签到

    0

    主题

    10

    帖子

    6

    积分

    入门影迷

    Rank: 1

    积分
    6
    发表于 2020-12-22 17:44:21 | 显示全部楼层
    66666666666很好
    回复

    使用道具 举报

  • TA的每日心情
    开心
    昨天 16:51
  • 签到天数: 488 天

    [LV.9]以坛为家II

    11

    主题

    868

    帖子

    79

    积分

    中级影迷

    Rank: 3Rank: 3

    积分
    79
    发表于 2020-12-22 23:37:33 | 显示全部楼层
    谢谢楼主分享
    回复

    使用道具 举报

  • TA的每日心情

    7 天前
  • 签到天数: 166 天

    [LV.7]常住居民III

    39

    主题

    1599

    帖子

    213

    积分

    高级影迷

    Rank: 4

    积分
    213
    发表于 2020-12-22 23:39:03 | 显示全部楼层
    厉害了,这个必收,感谢分享!洗版了
    回复

    使用道具 举报

    您需要登录后才可以回帖 登录 | 立即注册

    本版积分规则

    QQ|Archiver|手机版|小黑屋|影迷乐园

    GMT+8, 2021-3-9 11:12 , Processed in 0.067210 second(s), 28 queries .

    Powered by Discuz! X3.4

    Copyright © 2001-2020, Tencent Cloud.

    快速回复 返回顶部 返回列表