请选择 进入手机版 | 继续访问电脑版

YMLY-影迷乐园-特效字幕 蓝光原盘 1080P 高清动漫电影电视剧

 找回密码
 立即注册
搜索
查看: 129|回复: 4

[WEB-DL] [磁力][1995][七宗罪][简中字幕][布拉德·皮特.摩根·弗里曼][6.25GB][MKV][Se7en.1995.2160p.x265.10bit.FS99.Joy]

[复制链接]

该用户从未签到

0

主题

62

帖子

9

积分

入门影迷

Rank: 1

积分
9
发表于 2021-2-23 11:14:33 | 显示全部楼层 |阅读模式
[quote]----转载自Joy,感谢压制和原发布人员,特此鸣谢!----
----特点:体积小,画质好。----




◎译  名 七宗罪 / 7宗罪 / Seven / 火线追缉令(台)
◎片  名 Se7en
◎年  代 1995
◎产  地 美国
◎类  别 剧情 / 悬疑 / 惊悚 / 犯罪
◎语  言 英语 / 葡萄牙语
◎上映日期 1995-09-22(美国)
◎IMDb评分 8.6/10 from 1268113 users
◎IMDb链接 http://www.imdb.com/title/tt0114369
◎豆瓣评分 8.8/10 from 555751 users
◎豆瓣链接 https://movie.douban.com/subject/1292223/
◎片  长 127分钟
◎导  演 大卫·芬奇 David Fincher
◎编  剧 安德鲁·凯文·沃克 Andrew Kevin Walker
◎主  演 摩根·弗里曼 Morgan Freeman
      布拉德·皮特 Brad Pitt
      凯文·史派西 Kevin Spacey
      格温妮斯·帕特洛 Gwyneth Paltrow
      安德鲁·凯文·沃克 Andrew Kevin Walker
      John Cassini
      雷格·E.凯蒂 Reg E. Cathey
      李·厄米 R. Lee Ermey


◎标  签 悬疑 | 犯罪 | 七宗罪 | 美国 | 大卫·芬奇 | 宗教 | 惊悚 | 经典

◎简  介  

  “暴食”、“贪婪”、“懒惰”、“嫉妒”、“骄傲”、“淫欲”、“愤怒”,这是天主教教义所指的人性七宗罪。城市中发生的连坏杀人案,死者恰好都是犯有这些教义的人。凶手故弄玄虚的作案手法,令资深冷静的警员沙摩塞(摩根•弗里曼 Morgan Freeman 饰)和血气方刚的新扎警员米尔斯(布拉德•皮特 Brad Pitt 饰)都陷入了破案的谜团中。他们去图书馆研读但丁的《神曲》,企图从人间地狱的描绘中找到线索,最后从宗教文学哲学的世界中找到了凶手作案计划和手段的蛛丝马迹。凶手前来投案自首,这令众人都松了一口气,以为案件就此结束,怎料还是逃不出七宗罪的杀人逻辑,这次凶手瞄准的目标,是那个犯了“愤怒”罪的人……

◎获奖情况  

  第68届奥斯卡金像奖(1996)
  最佳剪辑(提名) 理查德·弗朗西斯-布鲁斯

  第49届英国电影学院奖(1996)
  电影奖 最佳原创剧本(提名) 安德鲁·凯文·沃克

  第20届日本电影学院奖(1997)
  最佳外语片(提名)

  第21届报知映画赏(1996)
  海外作品奖 大卫·芬奇
◎幕后制作:

      影片没有机械地将七桩案件罗列在一起,而是从两名警探的角度逐步展开。弗里曼的豁达睿智、彼特的血气方刚,都非常适合角色的个性。对白很有回味,全然没有惊险片惯常的白痴式问答。反角不仅在最后一幕出其不意地露面,而且有大段的独白。他说的话并不深奥,但难以琢磨透。影片敢于给反角大段台词以展现其艺术魅力,实属高招。结局虽然以反角死亡告终,但实际上是他大获全胜。


  1. General
  2. Unique ID                      : 65513675768688965878717030431187929732 (0x3149799923D095C39923A6828A320A84)
  3. Format                         : Matroska
  4. Format version                 : Version 4
  5. File size                      : 6.25 GiB
  6. Duration                       : 2 h 6 min
  7. Overall bit rate               : 7 057 kb/s
  8. Movie name                     : Se7en (1995)  [2160p x265 10bit Joy][UTR]
  9. Encoded date                   : UTC 2020-08-30 17:16:36
  10. Writing application            : mkvmerge v48.0.0 ('Fortress Around Your Heart') 64-bit
  11. Writing library                : libebml v1.4.0 + libmatroska v1.6.0

  12. Video
  13. ID                             : 1
  14. Format                         : HEVC
  15. Format/Info                    : High Efficiency Video Coding
  16. Format profile                 : Main 10@L5@Main
  17. Codec ID                       : V_MPEGH/ISO/HEVC
  18. Duration                       : 2 h 6 min
  19. Bit rate                       : 6 001 kb/s
  20. Width                          : 3 840 pixels
  21. Height                         : 1 600 pixels
  22. Display aspect ratio           : 2.40:1
  23. Frame rate mode                : Constant
  24. Frame rate                     : 23.976 (24000/1001) FPS
  25. Color space                    : YUV
  26. Chroma subsampling             : 4:2:0
  27. Bit depth                      : 10 bits
  28. Bits/(Pixel*Frame)             : 0.041
  29. Stream size                    : 5.32 GiB (85%)
  30. Writing library                : x265 3.2+9-971180b100f8:[Windows][GCC 9.2.0][64 bit] 10bit
  31. Encoding settings              : cpuid=1111039 / frame-threads=4 / numa-pools=16 / wpp / no-pmode / no-pme / no-psnr / ssim / log-level=2 / input-csp=1 / input-res=3840x1600 / interlace=0 / total-frames=182450 / level-idc=0 / high-tier=1 / uhd-bd=0 / ref=4 / no-allow-non-conformance / no-repeat-headers / annexb / no-aud / no-hrd / info / hash=0 / no-temporal-layers / open-gop / min-keyint=23 / keyint=250 / gop-lookahead=0 / bframes=8 / b-adapt=2 / b-pyramid / bframe-bias=40 / rc-lookahead=80 / lookahead-slices=4 / scenecut=40 / radl=0 / no-splice / no-intra-refresh / ctu=64 / min-cu-size=8 / rect / no-amp / max-tu-size=32 / tu-inter-depth=1 / tu-intra-depth=1 / limit-tu=0 / rdoq-level=2 / dynamic-rd=0.00 / ssim-rd / signhide / no-tskip / nr-intra=0 / nr-inter=0 / constrained-intra / strong-intra-smoothing / max-merge=3 / limit-refs=3 / limit-modes / me=3 / subme=3 / merange=57 / temporal-mvp / no-frame-dup / no-hme / weightp / no-weightb / no-analyze-src-pics / deblock=0:0 / sao / no-sao-non-deblock / rd=4 / selective-sao=4 / early-skip / rskip / no-fast-intra / no-tskip-fast / no-cu-lossless / no-b-intra / splitrd-skip / rdpenalty=0 / psy-rd=3.50 / psy-rdoq=2.50 / no-rd-refine / no-lossless / cbqpoffs=0 / crqpoffs=0 / rc=abr / bitrate=6000 / qcomp=0.60 / qpstep=4 / stats-write=0 / stats-read=2 / cplxblur=20.0 / qblur=0.5 / ipratio=1.40 / pbratio=1.30 / aq-mode=3 / aq-strength=0.40 / cutree / zone-count=0 / no-strict-cbr / qg-size=32 / no-rc-grain / qpmax=69 / qpmin=0 / no-const-vbv / sar=0 / overscan=0 / videoformat=5 / range=0 / colorprim=2 / transfer=2 / colormatrix=2 / chromaloc=0 / display-window=0 / cll=0,0 / min-luma=0 / max-luma=1023 / log2-max-poc-lsb=8 / vui-timing-info / vui-hrd-info / slices=1 / no-opt-qp-pps / no-opt-ref-list-length-pps / multi-pass-opt-rps / scenecut-bias=0.05 / no-opt-cu-delta-qp / no-aq-motion / no-hdr / no-hdr-opt / no-dhdr10-opt / no-idr-recovery-sei / analysis-load / analysis-reuse-level=10 / scale-factor=0 / refine-intra=0 / refine-inter=0 / refine-mv=1 / refine-ctu-distortion=0 / limit-sao / ctu-info=0 / no-lowpass-dct / refine-analysis-type=0 / copy-pic=1 / max-ausize-factor=1.0 / no-dynamic-refine / no-single-sei / no-hevc-aq / no-svt / no-field / qp-adaptation-range=1.00
  32. Default                        : Yes
  33. Forced                         : No

  34. Audio #1
  35. ID                             : 2
  36. Format                         : AAC LC
  37. Format/Info                    : Advanced Audio Codec Low Complexity
  38. Codec ID                       : A_AAC-2
  39. Duration                       : 2 h 6 min
  40. Bit rate                       : 613 kb/s
  41. Channel(s)                     : 8 channels
  42. Channel layout                 : C L R Ls Rs Lw Rw LFE
  43. Sampling rate                  : 48.0 kHz
  44. Frame rate                     : 46.875 FPS (1024 SPF)
  45. Compression mode               : Lossy
  46. Delay relative to video        : 9 ms
  47. Stream size                    : 556 MiB (9%)
  48. Language                       : English
  49. Default                        : No
  50. Forced                         : No

  51. Audio #2
  52. ID                             : 24
  53. Format                         : AAC LC SBR
  54. Format/Info                    : Advanced Audio Codec Low Complexity with Spectral Band Replication
  55. Commercial name                : HE-AAC
  56. Format settings                : Explicit
  57. Codec ID                       : A_AAC-2
  58. Duration                       : 2 h 6 min
  59. Bit rate                       : 66.2 kb/s
  60. Channel(s)                     : 2 channels
  61. Channel layout                 : L R
  62. Sampling rate                  : 48.0 kHz
  63. Frame rate                     : 23.438 FPS (2048 SPF)
  64. Compression mode               : Lossy
  65. Delay relative to video        : 40 ms
  66. Stream size                    : 59.7 MiB (1%)
  67. Title                          : Commentary by director David Fincher, Morgan Freeman and Brad Pitt
  68. Language                       : English
  69. Default                        : No
  70. Forced                         : No

  71. Audio #3
  72. ID                             : 25
  73. Format                         : AAC LC SBR
  74. Format/Info                    : Advanced Audio Codec Low Complexity with Spectral Band Replication
  75. Commercial name                : HE-AAC
  76. Format settings                : Explicit
  77. Codec ID                       : A_AAC-2
  78. Duration                       : 2 h 6 min
  79. Bit rate                       : 66.2 kb/s
  80. Channel(s)                     : 2 channels
  81. Channel layout                 : L R
  82. Sampling rate                  : 48.0 kHz
  83. Frame rate                     : 23.438 FPS (2048 SPF)
  84. Compression mode               : Lossy
  85. Delay relative to video        : 40 ms
  86. Stream size                    : 59.7 MiB (1%)
  87. Title                          : Commentary by director David Fincher with author Richard Dyer, the Writers
  88. Language                       : English
  89. Default                        : No
  90. Forced                         : No

  91. Audio #4
  92. ID                             : 26
  93. Format                         : AAC LC SBR
  94. Format/Info                    : Advanced Audio Codec Low Complexity with Spectral Band Replication
  95. Commercial name                : HE-AAC
  96. Format settings                : Explicit
  97. Codec ID                       : A_AAC-2
  98. Duration                       : 2 h 6 min
  99. Bit rate                       : 66.2 kb/s
  100. Channel(s)                     : 2 channels
  101. Channel layout                 : L R
  102. Sampling rate                  : 48.0 kHz
  103. Frame rate                     : 23.438 FPS (2048 SPF)
  104. Compression mode               : Lossy
  105. Delay relative to video        : 40 ms
  106. Stream size                    : 59.7 MiB (1%)
  107. Title                          : Commentary by director David Fincher, cinematographer Darius Khondji, production designer Arthur Max, editor Richard Francis-Bruce, and author Richard Dyer
  108. Language                       : English
  109. Default                        : No
  110. Forced                         : No

  111. Audio #5
  112. ID                             : 27
  113. Format                         : AAC LC SBR
  114. Format/Info                    : Advanced Audio Codec Low Complexity with Spectral Band Replication
  115. Commercial name                : HE-AAC
  116. Format settings                : Explicit
  117. Codec ID                       : A_AAC-2
  118. Duration                       : 2 h 6 min
  119. Bit rate                       : 66.2 kb/s
  120. Channel(s)                     : 2 channels
  121. Channel layout                 : L R
  122. Sampling rate                  : 48.0 kHz
  123. Frame rate                     : 23.438 FPS (2048 SPF)
  124. Compression mode               : Lossy
  125. Delay relative to video        : 40 ms
  126. Stream size                    : 59.8 MiB (1%)
  127. Title                          : Commentary by director David Fincher, sound designer Ren Klyce, composer Howard Shore, and author Richard Dyer
  128. Language                       : English
  129. Default                        : No
  130. Forced                         : No

  131. Text #1
  132. ID                             : 3
  133. Format                         : PGS
  134. Muxing mode                    : zlib
  135. Codec ID                       : S_HDMV/PGS
  136. Codec ID/Info                  : Picture based subtitle format used on BDs/HD-DVDs
  137. Duration                       : 2 h 6 min
  138. Bit rate                       : 35.7 kb/s
  139. Count of elements              : 3324
  140. Stream size                    : 32.2 MiB (1%)
  141. Language                       : English
  142. Default                        : No
  143. Forced                         : No

  144. Text #2
  145. ID                             : 4
  146. Format                         : VobSub
  147. Muxing mode                    : zlib
  148. Codec ID                       : S_VOBSUB
  149. Codec ID/Info                  : Picture based subtitle format used on DVDs
  150. Duration                       : 2 h 0 min
  151. Bit rate                       : 10.1 kb/s
  152. Count of elements              : 1406
  153. Stream size                    : 8.77 MiB (0%)
  154. Language                       : Dutch
  155. Default                        : No
  156. Forced                         : No

  157. Text #3
  158. ID                             : 5
  159. Format                         : VobSub
  160. Muxing mode                    : zlib
  161. Codec ID                       : S_VOBSUB
  162. Codec ID/Info                  : Picture based subtitle format used on DVDs
  163. Duration                       : 2 h 0 min
  164. Bit rate                       : 8 900 b/s
  165. Count of elements              : 1583
  166. Stream size                    : 7.70 MiB (0%)
  167. Language                       : Czech
  168. Default                        : No
  169. Forced                         : No

  170. Text #4
  171. ID                             : 6
  172. Format                         : VobSub
  173. Muxing mode                    : zlib
  174. Codec ID                       : S_VOBSUB
  175. Codec ID/Info                  : Picture based subtitle format used on DVDs
  176. Duration                       : 2 h 0 min
  177. Bit rate                       : 9 820 b/s
  178. Count of elements              : 1483
  179. Stream size                    : 8.50 MiB (0%)
  180. Language                       : Danish
  181. Default                        : No
  182. Forced                         : No

  183. Text #5
  184. ID                             : 7
  185. Format                         : VobSub
  186. Muxing mode                    : zlib
  187. Codec ID                       : S_VOBSUB
  188. Codec ID/Info                  : Picture based subtitle format used on DVDs
  189. Duration                       : 2 h 0 min
  190. Bit rate                       : 9 250 b/s
  191. Count of elements              : 1517
  192. Stream size                    : 8.00 MiB (0%)
  193. Language                       : Finnish
  194. Default                        : No
  195. Forced                         : No

  196. Text #6
  197. ID                             : 8
  198. Format                         : VobSub
  199. Muxing mode                    : zlib
  200. Codec ID                       : S_VOBSUB
  201. Codec ID/Info                  : Picture based subtitle format used on DVDs
  202. Duration                       : 2 h 0 min
  203. Bit rate                       : 9 763 b/s
  204. Count of elements              : 1567
  205. Stream size                    : 8.45 MiB (0%)
  206. Language                       : Norwegian Bokmal
  207. Default                        : No
  208. Forced                         : No

  209. Text #7
  210. ID                             : 9
  211. Format                         : VobSub
  212. Muxing mode                    : zlib
  213. Codec ID                       : S_VOBSUB
  214. Codec ID/Info                  : Picture based subtitle format used on DVDs
  215. Duration                       : 2 h 0 min
  216. Bit rate                       : 8 705 b/s
  217. Count of elements              : 1539
  218. Stream size                    : 7.53 MiB (0%)
  219. Language                       : Polish
  220. Default                        : No
  221. Forced                         : No

  222. Text #8
  223. ID                             : 10
  224. Format                         : VobSub
  225. Muxing mode                    : zlib
  226. Codec ID                       : S_VOBSUB
  227. Codec ID/Info                  : Picture based subtitle format used on DVDs
  228. Duration                       : 2 h 0 min
  229. Bit rate                       : 8 590 b/s
  230. Count of elements              : 1261
  231. Stream size                    : 7.43 MiB (0%)
  232. Language                       : Portuguese
  233. Default                        : No
  234. Forced                         : No

  235. Text #9
  236. ID                             : 11
  237. Format                         : VobSub
  238. Muxing mode                    : zlib
  239. Codec ID                       : S_VOBSUB
  240. Codec ID/Info                  : Picture based subtitle format used on DVDs
  241. Duration                       : 2 h 0 min
  242. Bit rate                       : 9 330 b/s
  243. Count of elements              : 1572
  244. Stream size                    : 8.07 MiB (0%)
  245. Language                       : Swedish
  246. Default                        : No
  247. Forced                         : No

  248. Text #10
  249. ID                             : 12
  250. Format                         : VobSub
  251. Muxing mode                    : zlib
  252. Codec ID                       : S_VOBSUB
  253. Codec ID/Info                  : Picture based subtitle format used on DVDs
  254. Duration                       : 1 h 55 min
  255. Bit rate                       : 212 b/s
  256. Count of elements              : 46
  257. Stream size                    : 180 KiB (0%)
  258. Language                       : Czech
  259. Default                        : No
  260. Forced                         : No

  261. Text #11
  262. ID                             : 13
  263. Format                         : UTF-8
  264. Codec ID                       : S_TEXT/UTF8
  265. Codec ID/Info                  : UTF-8 Plain Text
  266. Duration                       : 2 h 0 min
  267. Bit rate                       : 37 b/s
  268. Count of elements              : 1574
  269. Stream size                    : 33.4 KiB (0%)
  270. Language                       : Chinese
  271. Default                        : No
  272. Forced                         : No

  273. Text #12
  274. ID                             : 14
  275. Format                         : UTF-8
  276. Codec ID                       : S_TEXT/UTF8
  277. Codec ID/Info                  : UTF-8 Plain Text
  278. Duration                       : 2 h 5 min
  279. Bit rate                       : 46 b/s
  280. Count of elements              : 1462
  281. Stream size                    : 42.5 KiB (0%)
  282. Language                       : French
  283. Default                        : No
  284. Forced                         : No

  285. Text #13
  286. ID                             : 15
  287. Format                         : UTF-8
  288. Codec ID                       : S_TEXT/UTF8
  289. Codec ID/Info                  : UTF-8 Plain Text
  290. Duration                       : 2 h 0 min
  291. Bit rate                       : 55 b/s
  292. Count of elements              : 1357
  293. Stream size                    : 48.8 KiB (0%)
  294. Language                       : German
  295. Default                        : No
  296. Forced                         : No

  297. Text #14
  298. ID                             : 16
  299. Format                         : UTF-8
  300. Codec ID                       : S_TEXT/UTF8
  301. Codec ID/Info                  : UTF-8 Plain Text
  302. Duration                       : 2 h 0 min
  303. Bit rate                       : 84 b/s
  304. Count of elements              : 1430
  305. Stream size                    : 74.8 KiB (0%)
  306. Language                       : Greek
  307. Default                        : No
  308. Forced                         : No

  309. Text #15
  310. ID                             : 17
  311. Format                         : UTF-8
  312. Codec ID                       : S_TEXT/UTF8
  313. Codec ID/Info                  : UTF-8 Plain Text
  314. Duration                       : 2 h 1 min
  315. Bit rate                       : 166 b/s
  316. Count of elements              : 1526
  317. Stream size                    : 149 KiB (0%)
  318. Language                       : Arabic
  319. Default                        : No
  320. Forced                         : No

  321. Text #16
  322. ID                             : 18
  323. Format                         : UTF-8
  324. Codec ID                       : S_TEXT/UTF8
  325. Codec ID/Info                  : UTF-8 Plain Text
  326. Duration                       : 2 h 1 min
  327. Bit rate                       : 85 b/s
  328. Count of elements              : 1486
  329. Stream size                    : 76.1 KiB (0%)
  330. Language                       : Persian
  331. Default                        : No
  332. Forced                         : No

  333. Text #17
  334. ID                             : 19
  335. Format                         : UTF-8
  336. Codec ID                       : S_TEXT/UTF8
  337. Codec ID/Info                  : UTF-8 Plain Text
  338. Duration                       : 2 h 1 min
  339. Bit rate                       : 64 b/s
  340. Count of elements              : 1542
  341. Stream size                    : 57.5 KiB (0%)
  342. Language                       : Indonesian
  343. Default                        : No
  344. Forced                         : No

  345. Text #18
  346. ID                             : 20
  347. Format                         : UTF-8
  348. Codec ID                       : S_TEXT/UTF8
  349. Codec ID/Info                  : UTF-8 Plain Text
  350. Duration                       : 2 h 0 min
  351. Bit rate                       : 52 b/s
  352. Count of elements              : 1095
  353. Stream size                    : 46.8 KiB (0%)
  354. Language                       : Italian
  355. Default                        : No
  356. Forced                         : No

  357. Text #19
  358. ID                             : 21
  359. Format                         : UTF-8
  360. Codec ID                       : S_TEXT/UTF8
  361. Codec ID/Info                  : UTF-8 Plain Text
  362. Duration                       : 1 h 57 min
  363. Bit rate                       : 45 b/s
  364. Count of elements              : 1449
  365. Stream size                    : 38.8 KiB (0%)
  366. Language                       : Japanese
  367. Default                        : No
  368. Forced                         : No

  369. Text #20
  370. ID                             : 22
  371. Format                         : UTF-8
  372. Codec ID                       : S_TEXT/UTF8
  373. Codec ID/Info                  : UTF-8 Plain Text
  374. Duration                       : 2 h 1 min
  375. Bit rate                       : 124 b/s
  376. Count of elements              : 1573
  377. Stream size                    : 111 KiB (0%)
  378. Language                       : Thai
  379. Default                        : No
  380. Forced                         : No

  381. Text #21
  382. ID                             : 23
  383. Format                         : UTF-8
  384. Codec ID                       : S_TEXT/UTF8
  385. Codec ID/Info                  : UTF-8 Plain Text
  386. Duration                       : 2 h 0 min
  387. Bit rate                       : 67 b/s
  388. Count of elements              : 1513
  389. Stream size                    : 59.8 KiB (0%)
  390. Language                       : Vietnamese
  391. Default                        : No
  392. Forced                         : No

  393. Text #22
  394. ID                             : 28
  395. Format                         : VobSub
  396. Muxing mode                    : zlib
  397. Codec ID                       : S_VOBSUB
  398. Codec ID/Info                  : Picture based subtitle format used on DVDs
  399. Duration                       : 2 h 6 min
  400. Bit rate                       : 14.7 kb/s
  401. Count of elements              : 2349
  402. Stream size                    : 13.4 MiB (0%)
  403. Title                          : Commentary by director David Fincher, Morgan Freeman and Brad Pitt
  404. Language                       : Chinese
  405. Default                        : No
  406. Forced                         : No

  407. Text #23
  408. ID                             : 29
  409. Format                         : VobSub
  410. Muxing mode                    : zlib
  411. Codec ID                       : S_VOBSUB
  412. Codec ID/Info                  : Picture based subtitle format used on DVDs
  413. Duration                       : 2 h 6 min
  414. Bit rate                       : 15.5 kb/s
  415. Count of elements              : 2252
  416. Stream size                    : 14.0 MiB (0%)
  417. Title                          : Commentary by director David Fincher with author Richard Dyer, the Writers
  418. Language                       : Chinese
  419. Default                        : No
  420. Forced                         : No

  421. Text #24
  422. ID                             : 30
  423. Format                         : VobSub
  424. Muxing mode                    : zlib
  425. Codec ID                       : S_VOBSUB
  426. Codec ID/Info                  : Picture based subtitle format used on DVDs
  427. Duration                       : 2 h 6 min
  428. Bit rate                       : 13.8 kb/s
  429. Count of elements              : 2155
  430. Stream size                    : 12.5 MiB (0%)
  431. Title                          : Commentary by director David Fincher, cinematographer Darius Khondji, production designer Arthur Max, editor Richard Francis-Bruce, and author Richard Dyer
  432. Language                       : Chinese
  433. Default                        : No
  434. Forced                         : No

  435. Text #25
  436. ID                             : 31
  437. Format                         : VobSub
  438. Muxing mode                    : zlib
  439. Codec ID                       : S_VOBSUB
  440. Codec ID/Info                  : Picture based subtitle format used on DVDs
  441. Duration                       : 2 h 6 min
  442. Bit rate                       : 7 702 b/s
  443. Count of elements              : 1231
  444. Stream size                    : 6.98 MiB (0%)
  445. Title                          : Commentary by director David Fincher, sound designer Ren Klyce, composer Howard Shore, and author Richard Dyer
  446. Language                       : Chinese
  447. Default                        : No
  448. Forced                         : No

  449. Text #26
  450. ID                             : 32
  451. Format                         : VobSub
  452. Muxing mode                    : zlib
  453. Codec ID                       : S_VOBSUB
  454. Codec ID/Info                  : Picture based subtitle format used on DVDs
  455. Duration                       : 2 h 6 min
  456. Bit rate                       : 12.4 kb/s
  457. Count of elements              : 1729
  458. Stream size                    : 11.2 MiB (0%)
  459. Language                       : German
  460. Default                        : No
  461. Forced                         : No

  462. Text #27
  463. ID                             : 33
  464. Format                         : VobSub
  465. Muxing mode                    : zlib
  466. Codec ID                       : S_VOBSUB
  467. Codec ID/Info                  : Picture based subtitle format used on DVDs
  468. Duration                       : 2 h 5 min
  469. Bit rate                       : 9 425 b/s
  470. Count of elements              : 1572
  471. Stream size                    : 8.48 MiB (0%)
  472. Language                       : Greek
  473. Default                        : No
  474. Forced                         : No

  475. Text #28
  476. ID                             : 34
  477. Format                         : VobSub
  478. Muxing mode                    : zlib
  479. Codec ID                       : S_VOBSUB
  480. Codec ID/Info                  : Picture based subtitle format used on DVDs
  481. Duration                       : 2 h 5 min
  482. Bit rate                       : 7 714 b/s
  483. Count of elements              : 1573
  484. Stream size                    : 6.94 MiB (0%)
  485. Language                       : Hebrew
  486. Default                        : No
  487. Forced                         : No

  488. Text #29
  489. ID                             : 35
  490. Format                         : VobSub
  491. Muxing mode                    : zlib
  492. Codec ID                       : S_VOBSUB
  493. Codec ID/Info                  : Picture based subtitle format used on DVDs
  494. Duration                       : 2 h 5 min
  495. Bit rate                       : 7 582 b/s
  496. Count of elements              : 1575
  497. Stream size                    : 6.82 MiB (0%)
  498. Language                       : Korean
  499. Default                        : No
  500. Forced                         : No

  501. Text #30
  502. ID                             : 36
  503. Format                         : VobSub
  504. Muxing mode                    : zlib
  505. Codec ID                       : S_VOBSUB
  506. Codec ID/Info                  : Picture based subtitle format used on DVDs
  507. Duration                       : 2 h 6 min
  508. Bit rate                       : 13.5 kb/s
  509. Count of elements              : 2318
  510. Stream size                    : 12.2 MiB (0%)
  511. Title                          : Commentary by director David Fincher, Morgan Freeman and Brad Pitt
  512. Language                       : Korean
  513. Default                        : No
  514. Forced                         : No

  515. Text #31
  516. ID                             : 37
  517. Format                         : VobSub
  518. Muxing mode                    : zlib
  519. Codec ID                       : S_VOBSUB
  520. Codec ID/Info                  : Picture based subtitle format used on DVDs
  521. Duration                       : 2 h 6 min
  522. Bit rate                       : 13.9 kb/s
  523. Count of elements              : 2263
  524. Stream size                    : 12.6 MiB (0%)
  525. Title                          : Commentary by director David Fincher with author Richard Dyer, the Writers
  526. Language                       : Korean
  527. Default                        : No
  528. Forced                         : No

  529. Text #32
  530. ID                             : 38
  531. Format                         : VobSub
  532. Muxing mode                    : zlib
  533. Codec ID                       : S_VOBSUB
  534. Codec ID/Info                  : Picture based subtitle format used on DVDs
  535. Duration                       : 2 h 6 min
  536. Bit rate                       : 12.9 kb/s
  537. Count of elements              : 2159
  538. Stream size                    : 11.7 MiB (0%)
  539. Title                          : Commentary by director David Fincher, cinematographer Darius Khondji, production designer Arthur Max, editor Richard Francis-Bruce, and author Richard Dyer
  540. Language                       : Korean
  541. Default                        : No
  542. Forced                         : No

  543. Text #33
  544. ID                             : 39
  545. Format                         : VobSub
  546. Muxing mode                    : zlib
  547. Codec ID                       : S_VOBSUB
  548. Codec ID/Info                  : Picture based subtitle format used on DVDs
  549. Duration                       : 2 h 6 min
  550. Bit rate                       : 7 544 b/s
  551. Count of elements              : 1208
  552. Stream size                    : 6.84 MiB (0%)
  553. Title                          : Commentary by director David Fincher, sound designer Ren Klyce, composer Howard Shore, and author Richard Dyer
  554. Language                       : Korean
  555. Default                        : No
  556. Forced                         : No

  557. Text #34
  558. ID                             : 40
  559. Format                         : VobSub
  560. Muxing mode                    : zlib
  561. Codec ID                       : S_VOBSUB
  562. Codec ID/Info                  : Picture based subtitle format used on DVDs
  563. Duration                       : 2 h 5 min
  564. Bit rate                       : 9 046 b/s
  565. Count of elements              : 1575
  566. Stream size                    : 8.14 MiB (0%)
  567. Language                       : Portuguese
  568. Default                        : No
  569. Forced                         : No

  570. Text #35
  571. ID                             : 41
  572. Format                         : VobSub
  573. Muxing mode                    : zlib
  574. Codec ID                       : S_VOBSUB
  575. Codec ID/Info                  : Picture based subtitle format used on DVDs
  576. Duration                       : 2 h 5 min
  577. Bit rate                       : 8 933 b/s
  578. Count of elements              : 1541
  579. Stream size                    : 8.04 MiB (0%)
  580. Language                       : Spanish
  581. Default                        : No
  582. Forced                         : No

  583. Text #36
  584. ID                             : 42
  585. Format                         : VobSub
  586. Muxing mode                    : zlib
  587. Codec ID                       : S_VOBSUB
  588. Codec ID/Info                  : Picture based subtitle format used on DVDs
  589. Duration                       : 2 h 5 min
  590. Bit rate                       : 8 703 b/s
  591. Count of elements              : 1575
  592. Stream size                    : 7.83 MiB (0%)
  593. Language                       : Thai
  594. Default                        : No
  595. Forced                         : No

  596. Text #37
  597. ID                             : 43
  598. Format                         : VobSub
  599. Muxing mode                    : zlib
  600. Codec ID                       : S_VOBSUB
  601. Codec ID/Info                  : Picture based subtitle format used on DVDs
  602. Duration                       : 2 h 5 min
  603. Bit rate                       : 9 833 b/s
  604. Count of elements              : 1573
  605. Stream size                    : 8.84 MiB (0%)
  606. Language                       : Turkish
  607. Default                        : No
  608. Forced                         : No

  609. Menu
  610. 00:00:00.000                   : en:Opening Logo
  611. 00:04:11.251                   : en:The Last Seven Days
  612. 00:06:19.253                   : en:Main Title
  613. 00:07:33.744                   : en:Monday
  614. 00:14:47.511                   : en:Gluttony
  615. 00:17:07.443                   : en:Somerset Wants Out
  616. 00:18:11.465                   : en:Tuesday
  617. 00:21:42.175                   : en:Greed
  618. 00:24:26.756                   : en:Seven Deadly Sins
  619. 00:29:28.516                   : en:Hitting the Books
  620. 00:30:27.033                   : en:Wednesday
  621. 00:33:13.157                   : en:Close Quarters
  622. 00:37:28.454                   : en:A Late Supper
  623. 00:42:23.541                   : en:Forced Attrition
  624. 00:43:32.860                   : en:Mrs. Gould
  625. 00:47:43.235                   : en:Help Me
  626. 00:50:18.390                   : en:Thursday
  627. 00:54:24.803                   : en:Sloth
  628. 00:57:28.194                   : en:Feeding Off His Emotions
  629. 01:01:45.159                   : en:Friday
  630. 01:04:19.605                   : en:Methodical, Exacting and Patient
  631. 01:07:26.584                   : en:Who's Reading What
  632. 01:14:45.022                   : en:John Doe
  633. 01:20:34.037                   : en:A Reason to Knock
  634. 01:24:07.250                   : en:"I Admire You"
  635. 01:25:04.140                   : en:Saturday
  636. 01:28:15.498                   : en:Lust
  637. 01:33:05.162                   : en:Apathy Is Easy
  638. 01:33:58.799                   : en:Sunday; Pride
  639. 01:36:46.967                   : en:Surrender
  640. 01:39:04.480                   : en:The Deal
  641. 01:40:53.797                   : en:Ready to Move
  642. 01:44:05.030                   : en:"You Won't Miss a Thing"
  643. 01:50:53.855                   : en:The Chosen One
  644. 01:53:06.196                   : en:"It's Close"
  645. 01:56:56.634                   : en:The Package
  646. 02:02:00.313                   : en:Envy and Wrath
  647. 02:06:49.393                   : en:End Credits
复制代码



购买主题 已有 2 人购买  本主题需向作者支付 10 大洋 才能浏览
回复

使用道具 举报

  • TA的每日心情
    开心
    前天 19:48
  • 签到天数: 32 天

    [LV.5]常住居民I

    0

    主题

    85

    帖子

    7

    积分

    入门影迷

    Rank: 1

    积分
    7
    发表于 2021-2-23 13:18:51 | 显示全部楼层
    此帖仅作者可见

    使用道具 举报

  • TA的每日心情
    开心
    昨天 16:39
  • 签到天数: 248 天

    [LV.8]以坛为家I

    0

    主题

    3123

    帖子

    218

    积分

    高级影迷

    Rank: 4

    积分
    218
    发表于 2021-2-24 10:18:23 | 显示全部楼层
    此帖仅作者可见

    使用道具 举报

  • TA的每日心情

    1 小时前
  • 签到天数: 668 天

    [LV.9]以坛为家II

    39

    主题

    7598

    帖子

    1058

    积分

    资深影迷

    Rank: 10Rank: 10Rank: 10

    积分
    1058
    发表于 2021-2-24 10:29:32 | 显示全部楼层
    此帖仅作者可见

    使用道具 举报

    该用户从未签到

    0

    主题

    7

    帖子

    23

    积分

    入门影迷

    Rank: 1

    积分
    23
    发表于 4 天前 | 显示全部楼层
    此帖仅作者可见

    使用道具 举报

    您需要登录后才可以回帖 登录 | 立即注册

    本版积分规则

    QQ|Archiver|手机版|小黑屋|影迷乐园

    GMT+8, 2021-3-8 01:29 , Processed in 0.061432 second(s), 27 queries .

    Powered by Discuz! X3.4

    Copyright © 2001-2020, Tencent Cloud.

    快速回复 返回顶部 返回列表