请选择 进入手机版 | 继续访问电脑版

YMLY-影迷乐园-特效字幕 蓝光原盘 1080P 高清动漫电影电视剧

 找回密码
 立即注册
搜索
查看: 671|回复: 48

[意大利] [115][1988][天堂电影院.剧场版][国英双语.中英.国配特效字幕][29.81GB][MKV][Nuovo.Cinema.Paradiso.1988.8.BluRay.2160p.x265.10bit.HDR.2Audio.mUHD-FRDS]

[复制链接]
  • TA的每日心情
    奋斗
    2020-2-21 00:36
  • 签到天数: 656 天

    [LV.9]以坛为家II

    1万

    主题

    1万

    帖子

    9万

    积分

    超级版主

    与齐同行,是最初的梦想,也是一辈子的执着~

    Rank: 16Rank: 16Rank: 16Rank: 16

    积分
    93142

    内测勋章最佳新人十二生肖之猴VIP包月勋章影迷男神小土豪勋章土豪勋章富甲一方精华勋章金话筒主题达人灌水之王

    发表于 2021-3-13 17:17:01 | 显示全部楼层 |阅读模式
    下载说明:

    只能115会员离线下载,其它工具都下载不了,购买前请看清楚,一经出售,一概不退款!


    ----转载自FRDS,感谢压制和原发布人员,特此鸣谢!----


    制作说明:

    1.原盘压制洞房不败;
    2.重混内参国语来自cys92096@cnlang授权使用;
    3.国配特效和双语特效字幕来自Aimo@cnlang授权使用;
    4.非常感谢诸神的辛苦创作,以上素材若无原作者授权,不可提取二发或他用。




    ◎译  名 天堂电影院 / Cinema Paradiso / 新天堂乐园(台) / 星光伴我心(港)
    ◎片  名 Nuovo Cinema Paradiso
    ◎年  代 1988
    ◎产  地 意大利 / 法国
    ◎类  别 剧情 / 爱情
    ◎语  言 意大利语
    ◎上映日期 1988-11-17(意大利)
    ◎IMDb评分  8.5/10 from 217612 users
    ◎IMDb链接  https://www.imdb.com/title/tt0095765
    ◎豆瓣评分 9.2/10 from 474021 users
    ◎豆瓣链接 https://movie.douban.com/subject/1291828/
    ◎片  长 155分钟
    ◎导  演 朱塞佩·托纳多雷 Giuseppe Tornatore
    ◎编  剧 朱塞佩·托纳多雷 Giuseppe Tornatore / 瓦娜·波利 Vanna Paoli / Richard Epcar
    ◎主  演 安东内拉·阿蒂利 Antonella Attili
           恩佐·卡拉瓦勒 Enzo Cannavale
           艾萨·丹尼埃利 Isa Danieli
           里奥·故罗塔 Leo Gullotta
           马克·莱昂纳蒂 Marco Leonardi
           普佩拉·玛奇奥 Pupella Maggio
           阿格妮丝·那诺 Agnese Nano
           莱奥波多·特里耶斯泰 Leopoldo Trieste
           萨瓦特利·卡西欧 Salvatore Cascio
           尼古拉·迪·平托 Nicola Di Pinto
           罗伯塔·蕾娜 Roberta Lena
           尼诺·戴罗佐 Nino Terzo
           雅克·贝汉 Jacques Perrin
           菲利普·努瓦雷 Philippe Noiret
           玛丽娜·朱迪切 Mariella Lo Giudice
           比阿特丽斯·帕姆 Beatrice Palme
           罗斯科·阿巴克尔 Roscoe 'Fatty' Arbuckle
           茹涅·阿斯托尔 Junie Astor
           Ignazio Balsamo
           碧姬·芭铎 Brigitte Bardot
           约翰·巴里摩尔 John Barrymore
           伊萨·巴尔齐扎 Isa Barzizza
           英格丽·褒曼 Ingrid Bergman
           维尔玛·班基 Vilma Bánky
           克拉拉·卡拉马伊 Clara Calamai
           查理·卓别林 Charles Chaplin
           加里·库珀 Gary Cooper
           奥利维娅·德哈维兰 Olivia de Havilland
           维托里奥·德·西卡 Vittorio De Sica
           柯克·道格拉斯 Kirk Douglas
           埃罗尔·弗林 Errol Flynn
           布丽吉特·佛西 Brigitte Fossey
           让·伽本 Jean Gabin
           克拉克·盖博 Clark Gable
           葛丽泰·嘉宝 Greta Garbo
           维托里奥·加斯曼 Vittorio Gassman
           马西莫·吉洛蒂 Massimo Girotti
           法利·格兰杰 Farley Granger
           加里·格兰特 Cary Grant
           乔治亚·黑尔 Georgia Hale
           劳伦斯·哈维 Laurence Harvey
           海伦·海丝 Helen Hayes
           路易·茹韦 Louis Jouvet
           安娜·马尼亚尼 Anna Magnani
           西尔瓦娜·曼加诺 Silvana Mangano
           马塞洛·马斯楚安尼 Marcello Mastroianni
           阿梅德奥·纳扎里 Amedeo Nazzari
           苏济·普里姆 Suzy Prim
           唐娜·里德 Donna Reed
           简·拉塞尔 Jane Russell
           罗莎琳德·拉塞尔 Rosalind Russell
           伊冯娜·桑松 Yvonne Sanson
           玛丽亚·雪儿 Maria Schell
           瑙玛·希拉 Norma Shearer
           西蒙·西涅莱 Simone Signoret
           阿尔贝托·索尔迪 Alberto Sordi
           詹姆斯·斯图尔特 James Stewart
           朱塞佩·托纳多雷 Giuseppe Tornatore
           托托 Totò
           斯宾塞·屈塞 Spencer Tracy
           克莱尔·特雷弗 Claire Trevor
           鲁道夫·瓦伦蒂诺 Rudolph Valentino
           阿莉达·瓦利 Alida Valli
           约翰·韦恩 John Wayne


    ◎标  签 意大利 | 经典 | 成长 | 天堂电影院 | 剧情 | 托纳多雷 | 意大利电影 | 人生

    ◎简  介  

      意大利南部小镇,古灵精怪的小男孩多多(萨瓦特利·卡西欧 饰)喜欢看电影,更喜欢看放映师艾佛特(菲利浦·诺瓦雷 饰)放电影,他和艾佛特成为了忘年之交,在胶片中找到了童年生活的乐趣。
      好心的艾佛特为了让更多的观众看到电影,搞了一次露天电影,结果胶片着火了,多多把艾弗达从火海 中救了出来,但艾弗达双目失明。多多成了小镇唯一会放电影的人,他接替艾佛特成了小镇的电影放映师。
      多多(马克·莱昂纳蒂 饰)渐渐长大,他爱上了银行家的女儿艾莲娜(阿格妮丝·那诺 Agnese Nano 饰)。初恋的纯洁情愫美如天堂,但是一对小情侣的海誓山盟被艾莲娜父亲的阻挠给隔断了,多多去服兵役,而艾莲娜去念大学。伤心的多多在艾佛特的鼓励下,离开小镇,追寻自己生命中的梦想……
      30年后,艾佛特去世,此时的多多已经是功成名就的导演,他回到了家乡,看到残破的天堂电影院,追忆往昔,唏嘘不已。多多意外地遇见了艾莲娜,往日种种,真相大白,他们如何面对彼此?

    ◎获奖情况  

      第62届奥斯卡金像奖(1990)
      最佳外语片

      第42届戛纳电影节(1989)
      主竞赛单元 金棕榈奖(提名) 朱塞佩·托纳多雷
      主竞赛单元 评审团大奖 朱塞佩·托纳多雷

      第14届日本电影学院奖(1991)
      最佳外语片(提名)

    1. General
    2. Unique ID                      : 82884049788673362942954472468140885828 (0x3E5AE328B6FE79F31C0B4E327CA58744)
    3. Format                         : Matroska
    4. Format version                 : Version 4
    5. File size                      : 29.8 GiB
    6. Duration                       : 2 h 2 min
    7. Overall bit rate mode          : Variable
    8. Overall bit rate               : 34.7 Mb/s
    9. Encoded date                   : UTC 2021-03-03 12:33:42
    10. Writing application            : mkvmerge v53.0.0 ('Fool's Gold') 64-bit
    11. Writing library                : libebml v1.4.1 + libmatroska v1.6.2

    12. Video
    13. ID                             : 1
    14. ID in the original source medi : 4117 (0x1015)
    15. Format                         : HEVC
    16. Format/Info                    : High Efficiency Video Coding
    17. Format profile                 : Main 10@L5.1@High
    18. HDR format                     : Dolby Vision, Version 1.0, dvhe.08.06, BL+RPU, HDR10 compatible / SMPTE ST 2086, HDR10 compatible
    19. Codec ID                       : V_MPEGH/ISO/HEVC
    20. Duration                       : 2 h 2 min
    21. Bit rate                       : 30.4 Mb/s
    22. Width                          : 3 584 pixels
    23. Height                         : 2 160 pixels
    24. Display aspect ratio           : 5:3
    25. Frame rate mode                : Constant
    26. Frame rate                     : 23.976 (24000/1001) FPS
    27. Color space                    : YUV
    28. Chroma subsampling             : 4:2:0
    29. Bit depth                      : 10 bits
    30. Bits/(Pixel*Frame)             : 0.164
    31. Stream size                    : 26.1 GiB (88%)
    32. Writing library                : x265 3.3+3-g8f8e332f1+29:[Windows][#Erg`Djh#][@Yuuki] made by @Dongfangbubai
    33. Encoding settings              : rc=crf / crf=23.0000 / qcomp=0.70 / qpstep=4 / stats-write=0 / stats-read=0 / vbv-maxrate=160000 / vbv-bufsize=160000 / vbv-init=0.9 / crf-max=0.0 / crf-min=0.0 / no-lossless / no-cu-lossless / aq-mode=3 / aq-strength=0.80 / cbqpoffs=-3 / crqpoffs=-3 / ipratio=1.40 / pbratio=1.30 / psy-rd=2.00 / psy-rdoq=3.00 / deblock=-1:-1 / ref=5 / limit-refs=0 / no-limit-modes / bframes=8 / b-adapt=2 / bframe-bias=0 / b-pyramid / b-intra / weightp / weightb / min-keyint=23 / max-keyint=240 / rc-lookahead=60 / gop-lookahead=0 / scenecut=40 / hist-scenecut=0 / radl=0 / max-cu-size=32 / min-cu-size=8 / me=3 / subme=4 / merange=25 / rdoq-level=2 / rd=4 / rdpenalty=1 / dynamic-rd=0.00 / no-rd-refine / ----- / no-cutree / no-sao / no-rect / no-amp / no-open-gop / wpp / pmode / pme / no-psnr / no-ssim / nr-intra=0 / nr-inter=0 / no-constrained-intra / no-strong-intra-smoothing / max-tu-size=32 / tu-inter-depth=2 / tu-intra-depth=2 / limit-tu=0 / qg-size=32 / qpmax=69 / qpmin=0 / ----- / cpuid=1176575 / frame-threads=6 / numa-pools=54,- / log-level=2 / input-csp=1 / input-res=3584x2160 / interlace=0 / level-idc=0 / high-tier=1 / uhd-bd=0 / no-allow-non-conformance / repeat-headers / aud / hrd / info / hash=0 / no-temporal-layers / lookahead-slices=0 / no-splice / no-intra-refresh / no-ssim-rd / signhide / no-tskip / max-merge=3 / temporal-mvp / no-frame-dup / no-hme / no-analyze-src-pics / no-sao-non-deblock / selective-sao=0 / no-early-skip / no-rskip / no-fast-intra / no-tskip-fast / no-splitrd-skip / zone-count=0 / no-strict-cbr / no-rc-grain / no-const-vbv / sar=0 / overscan=0 / videoformat=5 / range=0 / colorprim=9 / transfer=16 / colormatrix=9 / chromaloc=0 / display-window=0 / master-display=G(13250,34500)B(7500,3000)R(34000,16000)WP(15635,16450)L(10000000,1) / cll=0,0 / min-luma=0 / max-luma=1023 / log2-max-poc-lsb=8 / vui-timing-info / vui-hrd-info / slices=1 / no-opt-qp-pps / no-opt-ref-list-length-pps / no-multi-pass-opt-rps / scenecut-bias=0.05 / hist-threshold=0.01 / no-opt-cu-delta-qp / no-aq-motion / hdr10 / hdr10-opt / no-dhdr10-opt / no-idr-recovery-sei / analysis-reuse-level=0 / analysis-save-reuse-level=0 / analysis-load-reuse-level=0 / scale-factor=0 / refine-intra=0 / refine-inter=0 / refine-mv=1 / refine-ctu-distortion=0 / no-limit-sao / ctu-info=0 / no-lowpass-dct / refine-analysis-type=0 / copy-pic=1 / max-ausize-factor=1.0 / no-dynamic-refine / no-single-sei / no-hevc-aq / no-svt / no-field / qp-adaptation-range=1.00 / no-scenecut-aware-qpconformance-window-offsets / right=0 / bottom=0
    34. Language                       : English
    35. Default                        : No
    36. Forced                         : No
    37. Color range                    : Limited
    38. Color primaries                : BT.2020
    39. Transfer characteristics       : PQ
    40. Matrix coefficients            : BT.2020 non-constant
    41. Mastering display color primar : Display P3
    42. Mastering display luminance    : min: 0.0001 cd/m2, max: 1000 cd/m2
    43. Original source medium         : Blu-ray

    44. Audio #1
    45. ID                             : 2
    46. Format                         : DTS XLL
    47. Format/Info                    : Digital Theater Systems
    48. Commercial name                : DTS-HD Master Audio
    49. Codec ID                       : A_DTS
    50. Duration                       : 2 h 2 min
    51. Bit rate mode                  : Variable
    52. Bit rate                       : 2 303 kb/s
    53. Channel(s)                     : 6 channels
    54. Channel layout                 : C L R Ls Rs LFE
    55. Sampling rate                  : 48.0 kHz
    56. Frame rate                     : 93.750 FPS (512 SPF)
    57. Bit depth                      : 24 bits
    58. Compression mode               : Lossless
    59. Stream size                    : 1.98 GiB (7%)
    60. Title                          : 意大利语
    61. Language                       : Italian
    62. Default                        : Yes
    63. Forced                         : No

    64. Audio #2
    65. ID                             : 3
    66. Format                         : DTS XLL
    67. Format/Info                    : Digital Theater Systems
    68. Commercial name                : DTS-HD Master Audio
    69. Codec ID                       : A_DTS
    70. Duration                       : 2 h 2 min
    71. Bit rate mode                  : Variable
    72. Bit rate                       : 1 823 kb/s
    73. Channel(s)                     : 6 channels
    74. Channel layout                 : C L R Ls Rs LFE
    75. Sampling rate                  : 48.0 kHz
    76. Frame rate                     : 93.750 FPS (512 SPF)
    77. Bit depth                      : 16 bits
    78. Compression mode               : Lossless
    79. Stream size                    : 1.57 GiB (5%)
    80. Title                          : 内参国语
    81. Language                       : Chinese
    82. Default                        : No
    83. Forced                         : No

    84. Text #1
    85. ID                             : 4
    86. Format                         : PGS
    87. Muxing mode                    : zlib
    88. Codec ID                       : S_HDMV/PGS
    89. Codec ID/Info                  : Picture based subtitle format used on BDs/HD-DVDs
    90. Duration                       : 1 h 57 min
    91. Bit rate                       : 93.4 kb/s
    92. Count of elements              : 4269
    93. Stream size                    : 78.3 MiB (0%)
    94. Title                          : 内参特效
    95. Language                       : Chinese
    96. Default                        : Yes
    97. Forced                         : No

    98. Text #2
    99. ID                             : 5
    100. Format                         : PGS
    101. Muxing mode                    : zlib
    102. Codec ID                       : S_HDMV/PGS
    103. Codec ID/Info                  : Picture based subtitle format used on BDs/HD-DVDs
    104. Duration                       : 1 h 57 min
    105. Bit rate                       : 106 kb/s
    106. Count of elements              : 3939
    107. Stream size                    : 88.6 MiB (0%)
    108. Title                          : 双语特效
    109. Language                       : Chinese
    110. Default                        : No
    111. Forced                         : No

    112. Text #3
    113. ID                             : 6
    114. Format                         : PGS
    115. Muxing mode                    : zlib
    116. Codec ID                       : S_HDMV/PGS
    117. Codec ID/Info                  : Picture based subtitle format used on BDs/HD-DVDs
    118. Duration                       : 1 h 57 min
    119. Bit rate                       : 85.3 kb/s
    120. Count of elements              : 3939
    121. Stream size                    : 71.5 MiB (0%)
    122. Title                          : 简中特效
    123. Language                       : Chinese
    124. Default                        : No
    125. Forced                         : No

    126. Text #4
    127. ID                             : 7
    128. Format                         : PGS
    129. Muxing mode                    : zlib
    130. Codec ID                       : S_HDMV/PGS
    131. Codec ID/Info                  : Picture based subtitle format used on BDs/HD-DVDs
    132. Duration                       : 1 h 58 min
    133. Bit rate                       : 12.7 kb/s
    134. Count of elements              : 1685
    135. Stream size                    : 10.8 MiB (0%)
    136. Title                          : 简体中文
    137. Language                       : Chinese
    138. Default                        : No
    139. Forced                         : No

    140. Text #5
    141. ID                             : 8
    142. Format                         : PGS
    143. Muxing mode                    : zlib
    144. Codec ID                       : S_HDMV/PGS
    145. Codec ID/Info                  : Picture based subtitle format used on BDs/HD-DVDs
    146. Duration                       : 1 h 58 min
    147. Bit rate                       : 13.0 kb/s
    148. Count of elements              : 1685
    149. Stream size                    : 11.0 MiB (0%)
    150. Title                          : 繁体中文
    151. Language                       : Chinese
    152. Default                        : No
    153. Forced                         : No

    154. Menu
    复制代码













    购买主题 已有 35 人购买  本主题需向作者支付 40 大洋 才能浏览
    郑重声明:
    本人提供的所有影视作品均是在网上搜集,任何涉及商业盈利目的均不得使用,否则产生的一切后果将由您自己承担!
    本人不对本人所发布的任何内容负任何法律责任!该下载内容仅做宽带测试使用,请在下载后24小时内删除。请购买正版!
    本人列出的文件没有保存在本站的服务器上,本人仅负责连接,本人对被传播文件的内容一无所知。
    如侵犯视频原作者或发行商版权,请联系本人删除!
    回复

    使用道具 举报

  • TA的每日心情
    慵懒
    昨天 08:28
  • 签到天数: 295 天

    [LV.8]以坛为家I

    6

    主题

    1537

    帖子

    210

    积分

    高级影迷

    Rank: 4

    积分
    210
    发表于 2021-3-13 17:41:32 | 显示全部楼层
    谢谢分享!
    回复

    使用道具 举报

  • TA的每日心情
    擦汗
    昨天 10:07
  • 签到天数: 184 天

    [LV.7]常住居民III

    9

    主题

    920

    帖子

    226

    积分

    高级影迷

    Rank: 4

    积分
    226
    发表于 2021-3-13 17:47:37 | 显示全部楼层
    竟然出4K了!!!支持
    回复

    使用道具 举报

  • TA的每日心情
    擦汗
    昨天 10:07
  • 签到天数: 184 天

    [LV.7]常住居民III

    9

    主题

    920

    帖子

    226

    积分

    高级影迷

    Rank: 4

    积分
    226
    发表于 2021-3-13 17:47:37 | 显示全部楼层
    竟然出4K了!!!支持
    回复

    使用道具 举报

  • TA的每日心情
    开心
    2021-2-24 15:56
  • 签到天数: 11 天

    [LV.3]偶尔看看II

    0

    主题

    958

    帖子

    127

    积分

    中级影迷

    Rank: 3Rank: 3

    积分
    127
    发表于 2021-3-13 17:48:29 | 显示全部楼层
    这个电影非常经典呀
    回复

    使用道具 举报

  • TA的每日心情
    开心
    2020-10-27 15:38
  • 签到天数: 5 天

    [LV.2]偶尔看看I

    0

    主题

    680

    帖子

    67

    积分

    初级影迷

    Rank: 2

    积分
    67
    发表于 2021-3-13 17:59:24 | 显示全部楼层
    挺好的 哈哈哈哈哈哈
    回复

    使用道具 举报

  • TA的每日心情
    开心
    2020-12-6 21:55
  • 签到天数: 1 天

    [LV.1]初来乍到

    0

    主题

    67

    帖子

    18

    积分

    入门影迷

    Rank: 1

    积分
    18
    发表于 2021-3-13 19:53:33 | 显示全部楼层
    谢谢分享!
    回复

    使用道具 举报

  • TA的每日心情
    开心
    2021-3-19 12:21
  • 签到天数: 80 天

    [LV.6]常住居民II

    1

    主题

    997

    帖子

    66

    积分

    初级影迷

    Rank: 2

    积分
    66
    发表于 2021-3-13 20:06:19 | 显示全部楼层
    因为疫情,电影越来越少,谢谢分享~~
    回复

    使用道具 举报

  • TA的每日心情
    开心
    昨天 12:37
  • 签到天数: 455 天

    [LV.9]以坛为家II

    0

    主题

    838

    帖子

    54

    积分

    初级影迷

    Rank: 2

    积分
    54
    发表于 2021-3-13 20:23:58 | 显示全部楼层
    谢谢分享!
    回复

    使用道具 举报

  • TA的每日心情
    郁闷
    昨天 14:47
  • 签到天数: 230 天

    [LV.7]常住居民III

    7

    主题

    2569

    帖子

    177

    积分

    高级影迷

    Rank: 4

    积分
    177
    发表于 2021-3-13 20:39:38 | 显示全部楼层
    谢谢分享~!!
    回复

    使用道具 举报

    您需要登录后才可以回帖 登录 | 立即注册

    本版积分规则

    QQ|Archiver|手机版|小黑屋|影迷乐园

    GMT+8, 2021-4-15 08:05 , Processed in 0.070655 second(s), 28 queries .

    Powered by Discuz! X3.4

    Copyright © 2001-2020, Tencent Cloud.

    快速回复 返回顶部 返回列表