请选择 进入手机版 | 继续访问电脑版

YMLY-影迷乐园-特效字幕 蓝光原盘 1080P 高清动漫电影电视剧

 找回密码
 立即注册
搜索
查看: 291|回复: 22

[美国] [115+百度][2019][停尸房收藏][简繁字幕][24.5GB][MKV][The.Mortuary.Collection.2019.UHD.2160p.x265.10bit.HDR.mUHD-FRDS]

[复制链接]
  • TA的每日心情
    奋斗
    2020-2-21 00:36
  • 签到天数: 656 天

    [LV.9]以坛为家II

    1万

    主题

    1万

    帖子

    9万

    积分

    超级版主

    与齐同行,是最初的梦想,也是一辈子的执着~

    Rank: 16Rank: 16Rank: 16Rank: 16

    积分
    93142

    内测勋章最佳新人十二生肖之猴VIP包月勋章影迷男神小土豪勋章土豪勋章富甲一方精华勋章金话筒主题达人灌水之王

    发表于 2021-3-17 13:44:23 | 显示全部楼层 |阅读模式
    下载说明:

    百度网盘分享极其不稳定,如有链接失效,请第一时间站内短消息通知我,上线后会第一时间补发!请大家多多谅解!电驴链接只能115会员离线下载,其它工具都下载不了!


    ----转载自FRDS,感谢压制和原发布人员,特此鸣谢!----


    制作说明:

    官方中字来自字幕库;
    Encode:洞房不败




    ◎译  名 停尸房收藏 / 殡仪馆收藏
    ◎片  名 The Mortuary Collection
    ◎年  代 2019
    ◎产  地 美国
    ◎类  别 恐怖
    ◎语  言 英语
    ◎上映日期 2019-09-21(奇幻影展) / 2020-10-15(美国)
    ◎IMDb评分  6.8/10 from 263 users
    ◎IMDb链接  https://www.imdb.com/title/tt7781432
    ◎豆瓣评分 0/10 from 0 users
    ◎豆瓣链接 https://movie.douban.com/subject/30257386/
    ◎片  长 108分钟
    ◎导  演 瑞恩·斯宾德尔 Ryan Spindell
    ◎编  剧 瑞恩·斯宾德尔 Ryan Spindell
    ◎主  演 凯特琳·卡斯特 Caitlin Custer
           克里斯汀·基默 Christine Kilmer
           雅各布·艾洛蒂 Jacob Elordi
           艾玛·霍瓦特 Ema Horvath
           珍妮弗·厄文 Jennifer Irwin
           詹姆斯·巴克曼 James Bachman
           巴拉克·哈德利 Barak Hardley
           莎拉·海伊 Sarah Hay
           迈克·C·尼尔森 Mike C. Nelson
           汤姆·伍德鲁夫 Tom Woodruff Jr.
           伊登·坎贝尔 Eden Campbell  
           迈克尔·鲍 Michael Bow


    ◎标  签 恐怖 | 惊悚 | 美国 | 灵异 | 奇幻 | 美国电影 | 2019 | 魔幻

    ◎简  介  

      讲述少女走进一间古老的停尸房,管理员老人有很多跟尸体和死亡有关的收藏,他带女孩回顾1950-1980年代四起死亡的秘密,曾经和现在,可怕的事发生……

    1. General
    2. Unique ID                      : 243046248750268121135404421005487774042 (0xB6D9013CCB9A5249B9935424BF2A195A)
    3. Format                         : Matroska
    4. Format version                 : Version 4
    5. File size                      : 24.5 GiB
    6. Duration                       : 1 h 50 min
    7. Overall bit rate mode          : Variable
    8. Overall bit rate               : 31.6 Mb/s
    9. Encoded date                   : UTC 2021-03-08 13:36:11
    10. Writing application            : mkvmerge v53.0.0 ('Fool's Gold') 64-bit
    11. Writing library                : libebml v1.4.1 + libmatroska v1.6.2

    12. Video
    13. ID                             : 1
    14. Format                         : HEVC
    15. Format/Info                    : High Efficiency Video Coding
    16. Format profile                 : Main 10@L5.1@High
    17. HDR format                     : SMPTE ST 2094 App 4, Version 1, HDR10+ Profile B compatible
    18. Codec ID                       : V_MPEGH/ISO/HEVC
    19. Duration                       : 1 h 50 min
    20. Bit rate                       : 29.6 Mb/s
    21. Width                          : 3 840 pixels
    22. Height                         : 1 612 pixels
    23. Display aspect ratio           : 2.40:1
    24. Frame rate mode                : Constant
    25. Frame rate                     : 23.976 (24000/1001) FPS
    26. Color space                    : YUV
    27. Chroma subsampling             : 4:2:0
    28. Bit depth                      : 10 bits
    29. Bits/(Pixel*Frame)             : 0.200
    30. Stream size                    : 23.0 GiB (94%)
    31. Writing library                : x265 3.3+3-g8f8e332f1+29:[Windows][#Erg`Djh#][@Yuuki] made by @Dongfangbubai
    32. Encoding settings              : rc=crf / crf=18.0000 / qcomp=0.70 / qpstep=4 / stats-write=0 / stats-read=0 / vbv-maxrate=160000 / vbv-bufsize=160000 / vbv-init=0.9 / crf-max=0.0 / crf-min=0.0 / no-lossless / no-cu-lossless / aq-mode=3 / aq-strength=0.80 / cbqpoffs=-3 / crqpoffs=-3 / ipratio=1.40 / pbratio=1.30 / psy-rd=2.00 / psy-rdoq=3.00 / deblock=-1:-1 / ref=5 / limit-refs=0 / no-limit-modes / bframes=8 / b-adapt=2 / bframe-bias=0 / b-pyramid / b-intra / weightp / weightb / min-keyint=23 / max-keyint=240 / rc-lookahead=60 / gop-lookahead=0 / scenecut=40 / hist-scenecut=0 / radl=0 / max-cu-size=32 / min-cu-size=8 / me=3 / subme=4 / merange=25 / rdoq-level=2 / rd=4 / rdpenalty=1 / dynamic-rd=0.00 / no-rd-refine / ----- / no-cutree / no-sao / no-rect / no-amp / no-open-gop / wpp / pmode / pme / no-psnr / no-ssim / nr-intra=0 / nr-inter=0 / no-constrained-intra / no-strong-intra-smoothing / max-tu-size=32 / tu-inter-depth=2 / tu-intra-depth=2 / limit-tu=0 / qg-size=32 / qpmax=69 / qpmin=0 / ----- / cpuid=1176575 / frame-threads=6 / numa-pools=54,- / log-level=2 / input-csp=1 / input-res=3840x1612 / interlace=0 / level-idc=0 / high-tier=1 / uhd-bd=0 / no-allow-non-conformance / repeat-headers / no-aud / hrd / info / hash=0 / no-temporal-layers / lookahead-slices=0 / no-splice / no-intra-refresh / no-ssim-rd / signhide / no-tskip / max-merge=3 / temporal-mvp / no-frame-dup / no-hme / no-analyze-src-pics / no-sao-non-deblock / selective-sao=0 / no-early-skip / no-rskip / no-fast-intra / no-tskip-fast / no-splitrd-skip / zone-count=0 / no-strict-cbr / no-rc-grain / no-const-vbv / sar=0 / overscan=0 / videoformat=5 / range=0 / colorprim=9 / transfer=16 / colormatrix=9 / chromaloc=0 / display-window=0 / master-display=G(13250,34500)B(7500,3000)R(34000,16000)WP(15635,16450)L(10000000,1) / cll=2450,400 / min-luma=0 / max-luma=1023 / log2-max-poc-lsb=8 / vui-timing-info / vui-hrd-info / slices=1 / no-opt-qp-pps / no-opt-ref-list-length-pps / no-multi-pass-opt-rps / scenecut-bias=0.05 / hist-threshold=0.01 / no-opt-cu-delta-qp / no-aq-motion / hdr10 / hdr10-opt / no-dhdr10-opt / no-idr-recovery-sei / analysis-reuse-level=0 / analysis-save-reuse-level=0 / analysis-load-reuse-level=0 / scale-factor=0 / refine-intra=0 / refine-inter=0 / refine-mv=1 / refine-ctu-distortion=0 / no-limit-sao / ctu-info=0 / no-lowpass-dct / refine-analysis-type=0 / copy-pic=1 / max-ausize-factor=1.0 / no-dynamic-refine / no-single-sei / no-hevc-aq / no-svt / no-field / qp-adaptation-range=1.00 / no-scenecut-aware-qpconformance-window-offsets / right=0 / bottom=0
    33. Default                        : Yes
    34. Forced                         : No
    35. Color range                    : Limited
    36. Color primaries                : BT.2020
    37. Transfer characteristics       : PQ
    38. Matrix coefficients            : BT.2020 non-constant
    39. Mastering display color primar : Display P3
    40. Mastering display luminance    : min: 0.0001 cd/m2, max: 1000 cd/m2
    41. Maximum Content Light Level    : 2450 cd/m2
    42. Maximum Frame-Average Light Le : 400 cd/m2

    43. Audio
    44. ID                             : 2
    45. Format                         : DTS XLL
    46. Format/Info                    : Digital Theater Systems
    47. Commercial name                : DTS-HD Master Audio
    48. Codec ID                       : A_DTS
    49. Duration                       : 1 h 50 min
    50. Bit rate mode                  : Variable
    51. Bit rate                       : 1 983 kb/s
    52. Channel(s)                     : 6 channels
    53. Channel layout                 : C L R Ls Rs LFE
    54. Sampling rate                  : 48.0 kHz
    55. Frame rate                     : 93.750 FPS (512 SPF)
    56. Bit depth                      : 16 bits
    57. Compression mode               : Lossless
    58. Stream size                    : 1.54 GiB (6%)
    59. Title                          : eng
    60. Language                       : English
    61. Default                        : Yes
    62. Forced                         : No

    63. Text #1
    64. ID                             : 3
    65. Format                         : PGS
    66. Muxing mode                    : zlib
    67. Codec ID                       : S_HDMV/PGS
    68. Codec ID/Info                  : Picture based subtitle format used on BDs/HD-DVDs
    69. Duration                       : 1 h 46 min
    70. Bit rate                       : 15.3 kb/s
    71. Count of elements              : 1046
    72. Stream size                    : 11.7 MiB (0%)
    73. Title                          : eng
    74. Language                       : English
    75. Default                        : Yes
    76. Forced                         : No

    77. Text #2
    78. ID                             : 4
    79. Format                         : PGS
    80. Muxing mode                    : zlib
    81. Codec ID                       : S_HDMV/PGS
    82. Codec ID/Info                  : Picture based subtitle format used on BDs/HD-DVDs
    83. Duration                       : 1 h 46 min
    84. Bit rate                       : 11.3 kb/s
    85. Count of elements              : 1478
    86. Stream size                    : 8.55 MiB (0%)
    87. Title                          : 官方简中
    88. Language                       : Chinese
    89. Default                        : No
    90. Forced                         : No

    91. Text #3
    92. ID                             : 5
    93. Format                         : PGS
    94. Muxing mode                    : zlib
    95. Codec ID                       : S_HDMV/PGS
    96. Codec ID/Info                  : Picture based subtitle format used on BDs/HD-DVDs
    97. Duration                       : 1 h 46 min
    98. Bit rate                       : 11.4 kb/s
    99. Count of elements              : 1478
    100. Stream size                    : 8.63 MiB (0%)
    101. Title                          : 官方繁中
    102. Language                       : Chinese
    103. Default                        : No
    104. Forced                         : No
    复制代码







    购买主题 已有 10 人购买  本主题需向作者支付 20 大洋 才能浏览
    郑重声明:
    本人提供的所有影视作品均是在网上搜集,任何涉及商业盈利目的均不得使用,否则产生的一切后果将由您自己承担!
    本人不对本人所发布的任何内容负任何法律责任!该下载内容仅做宽带测试使用,请在下载后24小时内删除。请购买正版!
    本人列出的文件没有保存在本站的服务器上,本人仅负责连接,本人对被传播文件的内容一无所知。
    如侵犯视频原作者或发行商版权,请联系本人删除!
    回复

    使用道具 举报

  • TA的每日心情
    开心
    昨天 16:36
  • 签到天数: 45 天

    [LV.5]常住居民I

    0

    主题

    434

    帖子

    98

    积分

    中级影迷

    Rank: 3Rank: 3

    积分
    98
    发表于 2021-3-17 14:33:33 | 显示全部楼层
    感谢分享感谢分享感谢分享
    回复

    使用道具 举报

  • TA的每日心情
    无聊
    昨天 17:03
  • 签到天数: 356 天

    [LV.8]以坛为家I

    2

    主题

    1882

    帖子

    122

    积分

    中级影迷

    Rank: 3Rank: 3

    积分
    122
    发表于 2021-3-17 14:58:14 | 显示全部楼层
    感谢分享好资源
    回复

    使用道具 举报

  • TA的每日心情
    无聊
    昨天 19:46
  • 签到天数: 126 天

    [LV.7]常住居民III

    1

    主题

    1251

    帖子

    122

    积分

    中级影迷

    Rank: 3Rank: 3

    积分
    122
    发表于 2021-3-17 15:16:11 | 显示全部楼层
    感谢楼主的分享
    回复

    使用道具 举报

  • TA的每日心情
    开心
    昨天 00:23
  • 签到天数: 379 天

    [LV.9]以坛为家II

    0

    主题

    544

    帖子

    85

    积分

    中级影迷

    Rank: 3Rank: 3

    积分
    85
    发表于 2021-3-17 15:51:35 | 显示全部楼层
    多些分享高分好电影
    回复

    使用道具 举报

    该用户从未签到

    3

    主题

    942

    帖子

    101

    积分

    中级影迷

    Rank: 3Rank: 3

    积分
    101
    发表于 2021-3-17 16:24:41 | 显示全部楼层
    6666666666666666666
    回复

    使用道具 举报

    该用户从未签到

    3

    主题

    942

    帖子

    101

    积分

    中级影迷

    Rank: 3Rank: 3

    积分
    101
    发表于 2021-3-17 16:24:41 | 显示全部楼层
    6666666666666666666
    回复

    使用道具 举报

  • TA的每日心情
    开心
    2020-12-17 13:37
  • 签到天数: 236 天

    [LV.7]常住居民III

    11

    主题

    2602

    帖子

    942

    积分

    ★★VIP6★★

    Rank: 22Rank: 22Rank: 22Rank: 22Rank: 22Rank: 22

    积分
    942

    小土豪勋章土豪勋章影迷男神十二生肖之猴天秤座勋章

    发表于 2021-3-17 16:41:10 | 显示全部楼层
    支持一下,感谢
    回复

    使用道具 举报

  • TA的每日心情
    难过
    昨天 14:23
  • 签到天数: 184 天

    [LV.7]常住居民III

    5

    主题

    1338

    帖子

    390

    积分

    超级影迷

    Rank: 6Rank: 6

    积分
    390
    发表于 2021-3-17 17:57:15 | 显示全部楼层
    感谢分享!
    回复

    使用道具 举报

  • TA的每日心情
    开心
    2021-3-10 18:19
  • 签到天数: 4 天

    [LV.2]偶尔看看I

    0

    主题

    52

    帖子

    17

    积分

    入门影迷

    Rank: 1

    积分
    17
    发表于 2021-3-17 19:06:41 | 显示全部楼层
    谢谢您的发布,非常感谢。
    回复

    使用道具 举报

    您需要登录后才可以回帖 登录 | 立即注册

    本版积分规则

    QQ|Archiver|手机版|小黑屋|影迷乐园

    GMT+8, 2021-4-15 07:46 , Processed in 0.067738 second(s), 28 queries .

    Powered by Discuz! X3.4

    Copyright © 2001-2020, Tencent Cloud.

    快速回复 返回顶部 返回列表