请选择 进入手机版 | 继续访问电脑版

YMLY-影迷乐园-特效字幕 蓝光原盘 1080P 高清动漫电影电视剧

 找回密码
 立即注册
搜索
查看: 314|回复: 19

[美国] [115][2019][仲夏夜惊魂][简.繁.中英字幕][17.11GB][MKV][Midsommar.2019.DC.BluRay.2160p.x265.10bit.HDR.mUHD-FRDS]

[复制链接]
  • TA的每日心情
    奋斗
    2020-2-21 00:36
  • 签到天数: 656 天

    [LV.9]以坛为家II

    1万

    主题

    1万

    帖子

    9万

    积分

    超级版主

    与齐同行,是最初的梦想,也是一辈子的执着~

    Rank: 16Rank: 16Rank: 16Rank: 16

    积分
    93142

    内测勋章最佳新人十二生肖之猴VIP包月勋章影迷男神小土豪勋章土豪勋章富甲一方精华勋章金话筒主题达人灌水之王

    发表于 2021-3-17 18:14:49 | 显示全部楼层 |阅读模式
    下载说明:

    只能115会员离线下载,其它工具都下载不了,购买前请看清楚,一经出售,一概不退款!


    ----转载自FRDS,感谢压制和原发布人员,特此鸣谢!----


    制作说明:

    DIY圆盘来自HDHOME,特此鸣谢!




    ◎译  名 仲夏夜惊魂 / 仲夏 / 仲夏噩梦 / 仲夏节 / 仲夏魇(台)
    ◎片  名 Midsommar
    ◎年  代 2019
    ◎产  地 美国 / 瑞典 / 匈牙利
    ◎类  别 恐怖
    ◎语  言 英语 / 瑞典语
    ◎上映日期 2019-07-03(美国)
    ◎IMDb评分  7.1/10 from 163617 users
    ◎IMDb链接  https://www.imdb.com/title/tt8772262
    ◎豆瓣评分 6.6/10 from 44921 users
    ◎豆瓣链接 https://movie.douban.com/subject/30288638/
    ◎片  长 147分钟
    ◎导  演 阿里·艾斯特 Ari Aster
    ◎编  剧 阿里·艾斯特 Ari Aster
    ◎主  演 弗洛伦斯·皮尤 Florence Pugh
           杰克·莱诺 Jack Reynor
           维尔赫尔姆·布洛姆根 Vilhelm Blomgren
           威廉·杰克森·哈珀 William Jackson Harper
           威尔·保尔特 Will Poulter
           埃洛拉·托尔基亚 Ellora Torchia
           阿奇·马德基 Archie Madekwe
           亨里克·诺伦 Henrik Norlén
           贡内尔·弗雷德 Gunnel Fred
           伊莎贝尔·古瑞 Isabelle Grill
           朱莉娅·拉格纳森 Julia Ragnarsson
           伯恩·安德森 Björn Andrésen
           安娜·阿斯特罗姆 Anna Åström
           丽芙·姆琼斯 Liv Mjönes
           路易丝·彼得霍夫 Louise Peterhoff
           安琪·拉尔森 Anki Larsson
           拉斯·瓦林格 Lars Väringer
           马茨·布洛姆格伦 Mats Blomgren
           安德斯·贝克曼 Anders Beckman


    ◎标  签 惊悚 | 邪教 | 恐怖 | 宗教 | 美国 | 悬疑 | 2019 | CULT

    ◎简  介  

      丹妮因姐姐及父母意外自杀而日渐崩溃,男友克里斯为了安抚丹妮而邀请丹妮与他的好友来到瑞典的一座偏远村庄参加了一个当地的夏季活动,以令她䆁怀姐姐及父母身亡的阴影。
      但活动却接二连三地发生怪事,而事情也朝着暴力、诡异的方向发展着,因此他们决定探索这里去解除疑惑。却发现这些美好的丰收背后与他们所信仰的宗教有关。事情的发展亦令丹妮的心理阴影日渐扩大,众人的情绪亦开始兴奋及崩溃起来,陷入分裂的局面⋯⋯逼迫着他们做出最终的抉择:居留或献祭⋯⋯

    ◎获奖情况  

      第91届美国国家评论协会奖(2019)
      十佳独立电影

      第25届美国评论家选择电影奖(2020)
      最佳科幻/恐怖片(提名)

      第35届美国独立精神奖(2020)
      最佳摄影(提名)

      第29届哥谭独立电影奖(2019)
      最佳女演员(提名) 弗洛伦丝·皮尤
      最佳剧本(提名) 阿里·艾斯特

      第54届美国国家影评人协会奖(2020)
      最佳女主角(提名) 弗洛伦丝·皮尤

      第40届伦敦影评人协会奖(2020)
      年度电影(提名)
      年度女主角(提名) 弗洛伦丝·皮尤
      年度英国/爱尔兰女演员(提名) 弗洛伦丝·皮尤

      第32届芝加哥影评人协会奖(2019)
      最佳视觉效果(提名)

      第13届底特律影评人协会奖(2019)
      最佳新人 弗洛伦丝·皮尤

      第23届美国在线影评人协会奖(2020)
      最佳女主角(提名) 弗洛伦丝·皮尤
    1. General
    2. Unique ID                      : 322171912986887242808530536209018518479 (0xF2600DAEA6621F15FEAF2E3434E7FBCF)
    3. Format                         : Matroska
    4. Format version                 : Version 4
    5. File size                      : 17.1 GiB
    6. Duration                       : 2 h 50 min
    7. Overall bit rate mode          : Variable
    8. Overall bit rate               : 14.4 Mb/s
    9. Encoded date                   : UTC 2020-08-15 00:28:11
    10. Writing application            : mkvmerge v44.0.0 ('Domino') 64-bit
    11. Writing library                : libebml v1.3.10 + libmatroska v1.5.2

    12. Video
    13. ID                             : 1
    14. Format                         : HEVC
    15. Format/Info                    : High Efficiency Video Coding
    16. Format profile                 : Main 10@L5.1@High
    17. HDR format                     : SMPTE ST 2086, HDR10 compatible
    18. Codec ID                       : V_MPEGH/ISO/HEVC
    19. Duration                       : 2 h 50 min
    20. Bit rate                       : 11.7 Mb/s
    21. Width                          : 3 840 pixels
    22. Height                         : 1 920 pixels
    23. Display aspect ratio           : 2.000
    24. Frame rate mode                : Constant
    25. Frame rate                     : 23.976 (24000/1001) FPS
    26. Color space                    : YUV
    27. Chroma subsampling             : 4:2:0
    28. Bit depth                      : 10 bits
    29. Bits/(Pixel*Frame)             : 0.066
    30. Stream size                    : 13.9 GiB (81%)
    31. Writing library                : x265 3.3+3-g8f8e332f1+29:[Windows][#Erg`Djh#][@Yuuki] made by @Dongfangbubai
    32. Encoding settings              : rc=crf / crf=18.0000 / qcomp=0.70 / qpstep=4 / stats-write=0 / stats-read=0 / vbv-maxrate=160000 / vbv-bufsize=160000 / vbv-init=0.9 / crf-max=0.0 / crf-min=0.0 / no-lossless / no-cu-lossless / aq-mode=3 / aq-strength=0.80 / cbqpoffs=-3 / crqpoffs=-3 / ipratio=1.40 / pbratio=1.30 / psy-rd=2.00 / psy-rdoq=3.00 / deblock=-1:-1 / ref=5 / limit-refs=0 / no-limit-modes / bframes=8 / b-adapt=2 / bframe-bias=0 / b-pyramid / b-intra / weightp / weightb / min-keyint=23 / max-keyint=240 / rc-lookahead=60 / gop-lookahead=0 / scenecut=40 / hist-scenecut=0 / radl=0 / max-cu-size=32 / min-cu-size=8 / me=3 / subme=4 / merange=25 / rdoq-level=2 / rd=4 / rdpenalty=1 / dynamic-rd=0.00 / no-rd-refine / ----- / no-cutree / no-sao / no-rect / no-amp / no-open-gop / wpp / pmode / pme / no-psnr / no-ssim / nr-intra=0 / nr-inter=0 / no-constrained-intra / no-strong-intra-smoothing / max-tu-size=32 / tu-inter-depth=2 / tu-intra-depth=2 / limit-tu=0 / qg-size=32 / qpmax=69 / qpmin=0 / ----- / cpuid=1176575 / frame-threads=6 / numa-pools=54,- / log-level=2 / input-csp=1 / input-res=3840x1920 / interlace=0 / level-idc=0 / high-tier=1 / uhd-bd=0 / no-allow-non-conformance / no-repeat-headers / no-aud / hrd / info / hash=0 / no-temporal-layers / lookahead-slices=0 / no-splice / no-intra-refresh / no-ssim-rd / signhide / no-tskip / max-merge=3 / temporal-mvp / no-frame-dup / no-hme / no-analyze-src-pics / no-sao-non-deblock / selective-sao=0 / no-early-skip / no-rskip / no-fast-intra / no-tskip-fast / no-splitrd-skip / zone-count=0 / no-strict-cbr / no-rc-grain / no-const-vbv / sar=0 / overscan=0 / videoformat=5 / range=0 / colorprim=9 / transfer=16 / colormatrix=9 / chromaloc=0 / display-window=0 / master-display=G(13250,34500)B(7500,3000)R(34000,16000)WP(15635,16450)L(10000000,1) / cll=1000,483 / min-luma=0 / max-luma=1023 / log2-max-poc-lsb=8 / vui-timing-info / vui-hrd-info / slices=1 / no-opt-qp-pps / no-opt-ref-list-length-pps / no-multi-pass-opt-rps / scenecut-bias=0.05 / hist-threshold=0.01 / no-opt-cu-delta-qp / no-aq-motion / hdr10 / hdr10-opt / no-dhdr10-opt / no-idr-recovery-sei / analysis-reuse-level=0 / analysis-save-reuse-level=0 / analysis-load-reuse-level=0 / scale-factor=0 / refine-intra=0 / refine-inter=0 / refine-mv=1 / refine-ctu-distortion=0 / no-limit-sao / ctu-info=0 / no-lowpass-dct / refine-analysis-type=0 / copy-pic=1 / max-ausize-factor=1.0 / no-dynamic-refine / no-single-sei / no-hevc-aq / no-svt / no-field / qp-adaptation-range=1.00 / no-scenecut-aware-qpconformance-window-offsets / right=0 / bottom=0
    33. Default                        : Yes
    34. Forced                         : No
    35. Color range                    : Limited
    36. Color primaries                : BT.2020
    37. Transfer characteristics       : PQ
    38. Matrix coefficients            : BT.2020 non-constant
    39. Mastering display color primar : Display P3
    40. Mastering display luminance    : min: 0.0001 cd/m2, max: 1000 cd/m2
    41. Maximum Content Light Level    : 1000 cd/m2
    42. Maximum Frame-Average Light Le : 483 cd/m2

    43. Audio
    44. ID                             : 2
    45. Format                         : DTS XLL
    46. Format/Info                    : Digital Theater Systems
    47. Commercial name                : DTS-HD Master Audio
    48. Codec ID                       : A_DTS
    49. Duration                       : 2 h 50 min
    50. Bit rate mode                  : Variable
    51. Bit rate                       : 2 662 kb/s
    52. Channel(s)                     : 6 channels
    53. Channel layout                 : C L R Ls Rs LFE
    54. Sampling rate                  : 48.0 kHz
    55. Frame rate                     : 93.750 FPS (512 SPF)
    56. Bit depth                      : 24 bits
    57. Compression mode               : Lossless
    58. Stream size                    : 3.17 GiB (18%)
    59. Title                          : 英语
    60. Language                       : English
    61. Default                        : Yes
    62. Forced                         : No

    63. Text #1
    64. ID                             : 3
    65. Format                         : PGS
    66. Muxing mode                    : zlib
    67. Codec ID                       : S_HDMV/PGS
    68. Codec ID/Info                  : Picture based subtitle format used on BDs/HD-DVDs
    69. Duration                       : 2 h 49 min
    70. Bit rate                       : 29.7 kb/s
    71. Count of elements              : 3306
    72. Stream size                    : 35.9 MiB (0%)
    73. Title                          : 英文
    74. Language                       : English
    75. Default                        : Yes
    76. Forced                         : No

    77. Text #2
    78. ID                             : 4
    79. Format                         : PGS
    80. Muxing mode                    : zlib
    81. Codec ID                       : S_HDMV/PGS
    82. Codec ID/Info                  : Picture based subtitle format used on BDs/HD-DVDs
    83. Duration                       : 2 h 48 min
    84. Bit rate                       : 19.9 kb/s
    85. Count of elements              : 2767
    86. Stream size                    : 23.9 MiB (0%)
    87. Title                          : 简中
    88. Language                       : Chinese
    89. Default                        : No
    90. Forced                         : No

    91. Text #3
    92. ID                             : 5
    93. Format                         : PGS
    94. Muxing mode                    : zlib
    95. Codec ID                       : S_HDMV/PGS
    96. Codec ID/Info                  : Picture based subtitle format used on BDs/HD-DVDs
    97. Duration                       : 2 h 48 min
    98. Bit rate                       : 34.2 kb/s
    99. Count of elements              : 2767
    100. Stream size                    : 41.1 MiB (0%)
    101. Title                          : 简英
    102. Language                       : Chinese
    103. Default                        : No
    104. Forced                         : No

    105. Text #4
    106. ID                             : 6
    107. Format                         : PGS
    108. Muxing mode                    : zlib
    109. Codec ID                       : S_HDMV/PGS
    110. Codec ID/Info                  : Picture based subtitle format used on BDs/HD-DVDs
    111. Duration                       : 2 h 48 min
    112. Bit rate                       : 20.3 kb/s
    113. Count of elements              : 2767
    114. Stream size                    : 24.4 MiB (0%)
    115. Title                          : 繁中
    116. Language                       : Chinese
    117. Default                        : No
    118. Forced                         : No

    119. Text #5
    120. ID                             : 7
    121. Format                         : PGS
    122. Muxing mode                    : zlib
    123. Codec ID                       : S_HDMV/PGS
    124. Codec ID/Info                  : Picture based subtitle format used on BDs/HD-DVDs
    125. Duration                       : 2 h 48 min
    126. Bit rate                       : 34.6 kb/s
    127. Count of elements              : 2767
    128. Stream size                    : 41.7 MiB (0%)
    129. Title                          : 繁英
    130. Language                       : Chinese
    131. Default                        : No
    132. Forced                         : No

    133. Menu
    134. 00:00:00.000                   : en:Chapter 01
    135. 00:12:34.378                   : en:Chapter 02
    136. 00:28:42.887                   : en:Chapter 03
    137. 00:47:34.935                   : en:Chapter 04
    138. 00:58:11.237                   : en:Chapter 05
    139. 01:14:23.041                   : en:Chapter 06
    140. 01:32:50.106                   : en:Chapter 07
    141. 01:45:44.046                   : en:Chapter 08
    142. 01:57:36.674                   : en:Chapter 09
    143. 02:12:00.579                   : en:Chapter 10
    144. 02:25:01.567                   : en:Chapter 11
    145. 02:39:02.658                   : en:Chapter 12
    复制代码







    购买主题 已有 8 人购买  本主题需向作者支付 10 大洋 才能浏览
    郑重声明:
    本人提供的所有影视作品均是在网上搜集,任何涉及商业盈利目的均不得使用,否则产生的一切后果将由您自己承担!
    本人不对本人所发布的任何内容负任何法律责任!该下载内容仅做宽带测试使用,请在下载后24小时内删除。请购买正版!
    本人列出的文件没有保存在本站的服务器上,本人仅负责连接,本人对被传播文件的内容一无所知。
    如侵犯视频原作者或发行商版权,请联系本人删除!
    回复

    使用道具 举报

  • TA的每日心情
    慵懒
    3 天前
  • 签到天数: 109 天

    [LV.6]常住居民II

    1

    主题

    1995

    帖子

    132

    积分

    中级影迷

    Rank: 3Rank: 3

    积分
    132
    发表于 2021-3-17 20:30:33 | 显示全部楼层
    感谢分享好资源
    回复

    使用道具 举报

  • TA的每日心情
    开心
    昨天 07:03
  • 签到天数: 268 天

    [LV.8]以坛为家I

    1

    主题

    3016

    帖子

    543

    积分

    专业影迷

    Rank: 8Rank: 8

    积分
    543
    发表于 2021-3-17 22:22:50 | 显示全部楼层
    谢谢楼主分享
    回复

    使用道具 举报

  • TA的每日心情
    奋斗
    昨天 13:42
  • 签到天数: 107 天

    [LV.6]常住居民II

    0

    主题

    179

    帖子

    134

    积分

    中级影迷

    Rank: 3Rank: 3

    积分
    134
    发表于 2021-3-17 23:40:17 | 显示全部楼层
    感谢楼主分享
    回复

    使用道具 举报

  • TA的每日心情
    开心
    2021-2-17 16:20
  • 签到天数: 1 天

    [LV.1]初来乍到

    0

    主题

    286

    帖子

    182

    积分

    高级影迷

    Rank: 4

    积分
    182
    发表于 2021-3-18 09:00:00 | 显示全部楼层
    谢谢楼主分享
    回复

    使用道具 举报

  • TA的每日心情
    擦汗
    昨天 09:03
  • 签到天数: 37 天

    [LV.5]常住居民I

    0

    主题

    400

    帖子

    93

    积分

    中级影迷

    Rank: 3Rank: 3

    积分
    93
    发表于 2021-3-18 09:43:59 | 显示全部楼层
    感谢分享好资源!好人生108个儿子!
    回复

    使用道具 举报

  • TA的每日心情
    无聊
    昨天 17:03
  • 签到天数: 356 天

    [LV.8]以坛为家I

    2

    主题

    1882

    帖子

    122

    积分

    中级影迷

    Rank: 3Rank: 3

    积分
    122
    发表于 2021-3-18 10:00:36 | 显示全部楼层
    感谢分享好资源
    回复

    使用道具 举报

  • TA的每日心情
    开心
    昨天 16:36
  • 签到天数: 45 天

    [LV.5]常住居民I

    0

    主题

    434

    帖子

    98

    积分

    中级影迷

    Rank: 3Rank: 3

    积分
    98
    发表于 2021-3-18 13:00:17 | 显示全部楼层
    感谢分享感谢分享感谢分享
    回复

    使用道具 举报

  • TA的每日心情
    开心
    2020-12-17 13:37
  • 签到天数: 236 天

    [LV.7]常住居民III

    11

    主题

    2602

    帖子

    942

    积分

    ★★VIP6★★

    Rank: 22Rank: 22Rank: 22Rank: 22Rank: 22Rank: 22

    积分
    942

    小土豪勋章土豪勋章影迷男神十二生肖之猴天秤座勋章

    发表于 2021-3-18 13:50:56 | 显示全部楼层
    这个好看,谢谢
    1
    回复

    使用道具 举报

  • TA的每日心情
    开心
    昨天 09:51
  • 签到天数: 139 天

    [LV.7]常住居民III

    3

    主题

    300

    帖子

    239

    积分

    高级影迷

    Rank: 4

    积分
    239

    小土豪勋章

    发表于 2021-3-18 15:19:46 | 显示全部楼层
    下载收藏!以后再看
    回复

    使用道具 举报

    您需要登录后才可以回帖 登录 | 立即注册

    本版积分规则

    QQ|Archiver|手机版|小黑屋|影迷乐园

    GMT+8, 2021-4-15 07:48 , Processed in 0.091755 second(s), 28 queries .

    Powered by Discuz! X3.4

    Copyright © 2001-2020, Tencent Cloud.

    快速回复 返回顶部 返回列表