请选择 进入手机版 | 继续访问电脑版

YMLY-影迷乐园-特效字幕 蓝光原盘 1080P 高清动漫电影电视剧

 找回密码
 立即注册
搜索
查看: 533|回复: 40

[美国] [115][1990][小鬼当家][次世代六区国语.简.繁.中英字幕][23.42GB][MKV][Home.Alone.1990.BluRay.2160p.x265.10bit.HDR.2Audio.mUHD-FRDS]

[复制链接]
  • TA的每日心情
    奋斗
    2020-2-21 00:36
  • 签到天数: 656 天

    [LV.9]以坛为家II

    1万

    主题

    1万

    帖子

    9万

    积分

    超级版主

    与齐同行,是最初的梦想,也是一辈子的执着~

    Rank: 16Rank: 16Rank: 16Rank: 16

    积分
    93141

    内测勋章最佳新人十二生肖之猴VIP包月勋章影迷男神小土豪勋章土豪勋章富甲一方精华勋章金话筒主题达人灌水之王

    发表于 2021-3-18 16:28:09 | 显示全部楼层 |阅读模式
    下载说明:

    只能115会员离线下载,其它工具都下载不了,购买前请看清楚,一经出售,一概不退款!


    ----转载自FRDS,感谢压制和原发布人员,特此鸣谢!----


    制作说明:

    DIY原盘来自HDHOME,次世代六区国语来自jack70@SSDForum;国配字幕来自杨明@字幕库,特此鸣谢!

    HDHOME的DIY原盘制作说明:
    原盘来源:LsNM,类型:Native 4K(真4K),HDR:HDR10。
    官方字幕来源:精研,双语字幕来源:根据官方中英字幕合成。
    追加字幕,播放时调出。
    Scenarist UHD制作,符合蓝光标准规范。
    PD18播放通过,其余未做测试。
    转载或提取二次制作请务必保留制作说明,并注明来源,谢谢!




    ◎译  名 小鬼当家 / 宝贝智多星 / 独自在家
    ◎片  名 Home Alone
    ◎年  代 1990
    ◎产  地 美国
    ◎类  别 喜剧 / 家庭 / 犯罪
    ◎语  言 英语
    ◎上映日期 1990-11-16
    ◎IMDb评分  7.6/10 from 454815 users
    ◎IMDb链接  https://www.imdb.com/title/tt0099785
    ◎豆瓣评分 8.3/10 from 309009 users
    ◎豆瓣链接 https://movie.douban.com/subject/1293088/
    ◎片  长 103分钟
    ◎导  演 克里斯·哥伦布 Chris Columbus
    ◎编  剧 约翰·休斯 John Hughes
    ◎主  演 麦考利·卡尔金 Macaulay Culkin
           乔·佩西 Joe Pesci
           丹尼尔·斯特恩 Daniel Stern
           约翰·赫德 John Heard
           罗伯茨·布洛瑟姆 Roberts Blossom
           凯瑟琳·欧哈拉 Catherine O'Hara
           安吉拉·戈塔尔斯 Angela Goethals
           戴文·雷特瑞 Devin Ratray
           杰瑞·巴曼 Gerry Bamman
           希拉里·沃尔夫 Hillary Wolf
           约翰·坎迪 John Candy
           拉里·哈金 Larry Hankin
           迈克尔·C·莫罗纳 Michael C. Maronna
           克里斯汀·敏特尔 Kristin Minter
           戴阿娜·坎佩露 Daiana Campeanu
           杰迪代亚·科恩 Jedidiah Cohen
           基南·卡尔金 Kieran Culkin
           森塔·摩西 Senta Moses
           泰利·斯内尔 Terrie Snell
           马特·多赫蒂 Matt Doherty
           拉尔夫·富迪 Ralph Foody
           迈克尔·吉多 Michael Guido
           雷·托勒 Ray Toler
           比莉·伯德 Billie Bird
           比尔·厄尔文 Bill Erwin
           格里·贝克尔 Gerry Becker
           克拉克·德弗洛 Clarke Devereux
           丹尼·沃霍尔 Dan Charles Zukoski
           霍普·戴维斯 Hope Davis
           詹姆斯·雷恩 James Ryan
           肯·哈德森·坎贝尔 Ken Hudson Campbell
           吉姆·奥特莱比 Jim Ortlieb
           莱昂纳尔·巴里摩尔 Lionel Barrymore
           奎因.卡尔金 Quinn Culkin
           拉加·高斯内尔 Raja Gosnell
           詹姆斯·M·赫夫曼 James M. Huffman
           宝拉·纽瑟姆 Paula Newsome
           尤里·鲁特曼 Yuri Rutman
           卢西亚诺·萨贝 Luciano Saber
           阿兰·维尔德 Alan Wilder


    ◎标  签 喜剧 | 美国 | 小鬼当家 | 儿童 | 搞笑 | 经典 | 美国电影 | 电影

    ◎简  介  

      一年一度的圣诞节又到了。全家忙着外出欢度圣诞假期,不料忙中出错,将家里最小的成员——8岁的凯文(麦考利•卡尔金 Macaulay Culkin 饰)留在了家里。爸爸妈妈急坏了,可此时他们已经身在外地,一时亦无可奈何。倒是凯文乐坏了,难得一个人在家,凯文将家里布置成了“游乐场”。两个刚出狱的窃贼将目光瞄向了凯文家。当他们鬼鬼祟祟的踏入凯文家时,凯文凭借自己的醒目和家里的“游乐场机关”,和两个笨贼玩起了“游戏”,笑料百出。凯文最后能否这场“游戏”的胜利?

    ◎获奖情况  

      第63届奥斯卡金像奖(1991)
      最佳原创配乐(提名) 约翰·威廉姆斯
      最佳原创歌曲(提名) 莱斯利·布里克斯 / 约翰·威廉姆斯









    1. General
    2. Unique ID                      : 299319870664385806776566397240570802278 (0xE12EE901F793AB9D5C71BF6CC9DBF066)
    3. Format                         : Matroska
    4. Format version                 : Version 4
    5. File size                      : 23.4 GiB
    6. Duration                       : 1 h 42 min
    7. Overall bit rate mode          : Variable
    8. Overall bit rate               : 32.6 Mb/s
    9. Encoded date                   : UTC 2020-09-22 13:39:56
    10. Writing application            : mkvmerge v44.0.0 ('Domino') 64-bit
    11. Writing library                : libebml v1.3.10 + libmatroska v1.5.2

    12. Video
    13. ID                             : 1
    14. Format                         : HEVC
    15. Format/Info                    : High Efficiency Video Coding
    16. Format profile                 : Main 10@L5.1@High
    17. HDR format                     : SMPTE ST 2086, HDR10 compatible
    18. Codec ID                       : V_MPEGH/ISO/HEVC
    19. Duration                       : 1 h 42 min
    20. Bit rate                       : 27.4 Mb/s
    21. Width                          : 3 840 pixels
    22. Height                         : 2 076 pixels
    23. Display aspect ratio           : 1.85:1
    24. Frame rate mode                : Constant
    25. Frame rate                     : 23.976 (24000/1001) FPS
    26. Color space                    : YUV
    27. Chroma subsampling             : 4:2:0
    28. Bit depth                      : 10 bits
    29. Bits/(Pixel*Frame)             : 0.144
    30. Stream size                    : 19.7 GiB (84%)
    31. Writing library                : x265 3.3+3-g8f8e332f1+29:[Windows][#Erg`Djh#][@Yuuki] made by @Dongfangbubai
    32. Encoding settings              : rc=crf / crf=20.0000 / qcomp=0.70 / qpstep=4 / stats-write=0 / stats-read=0 / vbv-maxrate=160000 / vbv-bufsize=160000 / vbv-init=0.9 / crf-max=0.0 / crf-min=0.0 / no-lossless / no-cu-lossless / aq-mode=3 / aq-strength=0.80 / cbqpoffs=-3 / crqpoffs=-3 / ipratio=1.40 / pbratio=1.30 / psy-rd=2.00 / psy-rdoq=3.00 / deblock=-1:-1 / ref=5 / limit-refs=0 / no-limit-modes / bframes=8 / b-adapt=2 / bframe-bias=0 / b-pyramid / b-intra / weightp / weightb / min-keyint=23 / max-keyint=240 / rc-lookahead=60 / gop-lookahead=0 / scenecut=40 / hist-scenecut=0 / radl=0 / max-cu-size=32 / min-cu-size=8 / me=3 / subme=4 / merange=25 / rdoq-level=2 / rd=4 / rdpenalty=1 / dynamic-rd=0.00 / no-rd-refine / ----- / no-cutree / no-sao / no-rect / no-amp / no-open-gop / wpp / pmode / pme / no-psnr / no-ssim / nr-intra=0 / nr-inter=0 / no-constrained-intra / no-strong-intra-smoothing / max-tu-size=32 / tu-inter-depth=2 / tu-intra-depth=2 / limit-tu=0 / qg-size=32 / qpmax=69 / qpmin=0 / ----- / cpuid=1176575 / frame-threads=6 / numa-pools=54,- / log-level=2 / input-csp=1 / input-res=3840x2076 / interlace=0 / level-idc=0 / high-tier=1 / uhd-bd=0 / no-allow-non-conformance / no-repeat-headers / no-aud / hrd / info / hash=0 / no-temporal-layers / lookahead-slices=0 / no-splice / no-intra-refresh / no-ssim-rd / signhide / no-tskip / max-merge=3 / temporal-mvp / no-frame-dup / no-hme / no-analyze-src-pics / no-sao-non-deblock / selective-sao=0 / no-early-skip / no-rskip / no-fast-intra / no-tskip-fast / no-splitrd-skip / zone-count=0 / no-strict-cbr / no-rc-grain / no-const-vbv / sar=0 / overscan=0 / videoformat=5 / range=0 / colorprim=9 / transfer=16 / colormatrix=9 / chromaloc=0 / display-window=0 / master-display=G(13250,34500)B(7500,3000)R(34000,16000)WP(15635,16450)L(10000000,1) / cll=0,0 / min-luma=0 / max-luma=1023 / log2-max-poc-lsb=8 / vui-timing-info / vui-hrd-info / slices=1 / no-opt-qp-pps / no-opt-ref-list-length-pps / no-multi-pass-opt-rps / scenecut-bias=0.05 / hist-threshold=0.01 / no-opt-cu-delta-qp / no-aq-motion / hdr10 / hdr10-opt / no-dhdr10-opt / no-idr-recovery-sei / analysis-reuse-level=0 / analysis-save-reuse-level=0 / analysis-load-reuse-level=0 / scale-factor=0 / refine-intra=0 / refine-inter=0 / refine-mv=1 / refine-ctu-distortion=0 / no-limit-sao / ctu-info=0 / no-lowpass-dct / refine-analysis-type=0 / copy-pic=1 / max-ausize-factor=1.0 / no-dynamic-refine / no-single-sei / no-hevc-aq / no-svt / no-field / qp-adaptation-range=1.00 / no-scenecut-aware-qpconformance-window-offsets / right=0 / bottom=0
    33. Default                        : Yes
    34. Forced                         : No
    35. Color range                    : Limited
    36. Color primaries                : BT.2020
    37. Transfer characteristics       : PQ
    38. Matrix coefficients            : BT.2020 non-constant
    39. Mastering display color primar : Display P3
    40. Mastering display luminance    : min: 0.0001 cd/m2, max: 1000 cd/m2

    41. Audio #1
    42. ID                             : 2
    43. Format                         : DTS XLL
    44. Format/Info                    : Digital Theater Systems
    45. Commercial name                : DTS-HD Master Audio
    46. Codec ID                       : A_DTS
    47. Duration                       : 1 h 42 min
    48. Bit rate mode                  : Variable
    49. Bit rate                       : 3 569 kb/s
    50. Channel(s)                     : 6 channels
    51. Channel layout                 : C L R Ls Rs LFE
    52. Sampling rate                  : 48.0 kHz
    53. Frame rate                     : 93.750 FPS (512 SPF)
    54. Bit depth                      : 24 bits
    55. Compression mode               : Lossless
    56. Stream size                    : 2.56 GiB (11%)
    57. Title                          : 英语
    58. Language                       : English
    59. Default                        : Yes
    60. Forced                         : No

    61. Audio #2
    62. ID                             : 3
    63. Format                         : MLP FBA
    64. Format/Info                    : Meridian Lossless Packing FBA
    65. Commercial name                : Dolby TrueHD
    66. Codec ID                       : A_TRUEHD
    67. Duration                       : 1 h 42 min
    68. Bit rate mode                  : Variable
    69. Bit rate                       : 1 413 kb/s
    70. Maximum bit rate               : 2 745 kb/s
    71. Channel(s)                     : 6 channels
    72. Channel layout                 : L R C LFE Ls Rs
    73. Sampling rate                  : 48.0 kHz
    74. Frame rate                     : 1 200.000 FPS (40 SPF)
    75. Compression mode               : Lossless
    76. Stream size                    : 1.02 GiB (4%)
    77. Title                          : 六区国语
    78. Language                       : Chinese
    79. Default                        : No
    80. Forced                         : No

    81. Text #1
    82. ID                             : 4
    83. Format                         : PGS
    84. Muxing mode                    : zlib
    85. Codec ID                       : S_HDMV/PGS
    86. Codec ID/Info                  : Picture based subtitle format used on BDs/HD-DVDs
    87. Duration                       : 1 h 40 min
    88. Bit rate                       : 41.9 kb/s
    89. Count of elements              : 2582
    90. Stream size                    : 30.1 MiB (0%)
    91. Title                          : 英文
    92. Language                       : English
    93. Default                        : Yes
    94. Forced                         : No

    95. Text #2
    96. ID                             : 5
    97. Format                         : PGS
    98. Muxing mode                    : zlib
    99. Codec ID                       : S_HDMV/PGS
    100. Codec ID/Info                  : Picture based subtitle format used on BDs/HD-DVDs
    101. Duration                       : 1 h 37 min
    102. Bit rate                       : 25.4 kb/s
    103. Count of elements              : 2086
    104. Stream size                    : 17.8 MiB (0%)
    105. Title                          : 六区简中
    106. Language                       : Chinese
    107. Default                        : No
    108. Forced                         : No

    109. Text #3
    110. ID                             : 6
    111. Format                         : PGS
    112. Muxing mode                    : zlib
    113. Codec ID                       : S_HDMV/PGS
    114. Codec ID/Info                  : Picture based subtitle format used on BDs/HD-DVDs
    115. Duration                       : 1 h 39 min
    116. Bit rate                       : 26.9 kb/s
    117. Count of elements              : 2172
    118. Stream size                    : 19.2 MiB (0%)
    119. Title                          : 简中
    120. Language                       : Chinese
    121. Default                        : No
    122. Forced                         : No

    123. Text #4
    124. ID                             : 7
    125. Format                         : PGS
    126. Muxing mode                    : zlib
    127. Codec ID                       : S_HDMV/PGS
    128. Codec ID/Info                  : Picture based subtitle format used on BDs/HD-DVDs
    129. Duration                       : 1 h 39 min
    130. Bit rate                       : 27.6 kb/s
    131. Count of elements              : 2172
    132. Stream size                    : 19.8 MiB (0%)
    133. Title                          : 繁中
    134. Language                       : Chinese
    135. Default                        : No
    136. Forced                         : No

    137. Text #5
    138. ID                             : 8
    139. Format                         : PGS
    140. Muxing mode                    : zlib
    141. Codec ID                       : S_HDMV/PGS
    142. Codec ID/Info                  : Picture based subtitle format used on BDs/HD-DVDs
    143. Duration                       : 1 h 39 min
    144. Bit rate                       : 41.7 kb/s
    145. Count of elements              : 2039
    146. Stream size                    : 29.8 MiB (0%)
    147. Title                          : 简英
    148. Language                       : Chinese
    149. Default                        : No
    150. Forced                         : No

    151. Text #6
    152. ID                             : 9
    153. Format                         : PGS
    154. Muxing mode                    : zlib
    155. Codec ID                       : S_HDMV/PGS
    156. Codec ID/Info                  : Picture based subtitle format used on BDs/HD-DVDs
    157. Duration                       : 1 h 39 min
    158. Bit rate                       : 42.3 kb/s
    159. Count of elements              : 2039
    160. Stream size                    : 30.3 MiB (0%)
    161. Title                          : 繁英
    162. Language                       : Chinese
    163. Default                        : No
    164. Forced                         : No

    165. Menu
    166. 00:00:00.000                   : en:Chapter 01
    167. 00:03:46.976                   : en:Chapter 02
    168. 00:03:47.060                   : en:Chapter 03
    169. 00:05:46.596                   : en:Chapter 04
    170. 00:05:46.679                   : en:Chapter 05
    171. 00:08:49.195                   : en:Chapter 06
    172. 00:08:49.278                   : en:Chapter 07
    173. 00:11:28.646                   : en:Chapter 08
    174. 00:11:28.729                   : en:Chapter 09
    175. 00:13:43.155                   : en:Chapter 10
    176. 00:13:43.239                   : en:Chapter 11
    177. 00:19:27.374                   : en:Chapter 12
    178. 00:19:27.457                   : en:Chapter 13
    179. 00:25:08.089                   : en:Chapter 14
    180. 00:25:08.173                   : en:Chapter 15
    181. 00:31:15.957                   : en:Chapter 16
    182. 00:31:16.040                   : en:Chapter 17
    183. 00:35:56.571                   : en:Chapter 18
    184. 00:35:56.654                   : en:Chapter 19
    185. 00:41:09.467                   : en:Chapter 20
    186. 00:41:09.550                   : en:Chapter 21
    187. 00:51:22.579                   : en:Chapter 22
    188. 00:51:22.662                   : en:Chapter 23
    189. 00:57:38.496                   : en:Chapter 24
    190. 00:57:38.580                   : en:Chapter 25
    191. 01:03:27.553                   : en:Chapter 26
    192. 01:03:27.637                   : en:Chapter 27
    193. 01:06:33.572                   : en:Chapter 28
    194. 01:06:33.656                   : en:Chapter 29
    195. 01:13:43.752                   : en:Chapter 30
    196. 01:13:43.836                   : en:Chapter 31
    197. 01:15:13.133                   : en:Chapter 32
    198. 01:15:13.217                   : en:Chapter 33
    199. 01:19:26.970                   : en:Chapter 34
    200. 01:19:27.053                   : en:Chapter 35
    201. 01:22:51.257                   : en:Chapter 36
    202. 01:22:51.341                   : en:Chapter 37
    203. 01:25:59.988                   : en:Chapter 38
    204. 01:26:00.071                   : en:Chapter 39
    205. 01:28:44.986                   : en:Chapter 40
    206. 01:28:45.069                   : en:Chapter 41
    207. 01:33:32.148                   : en:Chapter 42
    208. 01:33:32.231                   : en:Chapter 43
    209. 01:37:58.205                   : en:Chapter 44
    210. 01:37:58.289                   : en:Chapter 45
    211. 01:39:05.981                   : en:Chapter 46
    212. 01:39:06.065                   : en:Chapter 47
    213. 01:42:50.622                   : en:Chapter 48
    复制代码


    购买主题 已有 22 人购买  本主题需向作者支付 30 大洋 才能浏览
    郑重声明:
    本人提供的所有影视作品均是在网上搜集,任何涉及商业盈利目的均不得使用,否则产生的一切后果将由您自己承担!
    本人不对本人所发布的任何内容负任何法律责任!该下载内容仅做宽带测试使用,请在下载后24小时内删除。请购买正版!
    本人列出的文件没有保存在本站的服务器上,本人仅负责连接,本人对被传播文件的内容一无所知。
    如侵犯视频原作者或发行商版权,请联系本人删除!
    回复

    使用道具 举报

  • TA的每日心情
    开心
    昨天 16:42
  • 签到天数: 113 天

    [LV.6]常住居民II

    0

    主题

    435

    帖子

    22

    积分

    入门影迷

    Rank: 1

    积分
    22
    发表于 2021-3-18 16:57:01 | 显示全部楼层
    非常感谢楼主
    回复

    使用道具 举报

  • TA的每日心情
    开心
    昨天 09:51
  • 签到天数: 139 天

    [LV.7]常住居民III

    3

    主题

    300

    帖子

    239

    积分

    高级影迷

    Rank: 4

    积分
    239

    小土豪勋章

    发表于 2021-3-18 17:25:04 | 显示全部楼层
    小鬼当家  听说不错
    回复

    使用道具 举报

    该用户从未签到

    3

    主题

    942

    帖子

    101

    积分

    中级影迷

    Rank: 3Rank: 3

    积分
    101
    发表于 2021-3-18 18:10:06 | 显示全部楼层
    66666666666666666666
    回复

    使用道具 举报

    该用户从未签到

    3

    主题

    942

    帖子

    101

    积分

    中级影迷

    Rank: 3Rank: 3

    积分
    101
    发表于 2021-3-18 18:10:06 | 显示全部楼层
    66666666666666666666
    回复

    使用道具 举报

  • TA的每日心情
    无聊
    昨天 17:03
  • 签到天数: 356 天

    [LV.8]以坛为家I

    2

    主题

    1882

    帖子

    122

    积分

    中级影迷

    Rank: 3Rank: 3

    积分
    122
    发表于 2021-3-18 18:16:59 | 显示全部楼层
    感谢分享好资源
    回复

    使用道具 举报

  • TA的每日心情
    慵懒
    昨天 08:28
  • 签到天数: 295 天

    [LV.8]以坛为家I

    6

    主题

    1537

    帖子

    210

    积分

    高级影迷

    Rank: 4

    积分
    210
    发表于 2021-3-18 18:34:37 | 显示全部楼层
    谢谢分享!
    回复

    使用道具 举报

  • TA的每日心情
    开心
    昨天 00:00
  • 签到天数: 194 天

    [LV.7]常住居民III

    0

    主题

    763

    帖子

    83

    积分

    中级影迷

    Rank: 3Rank: 3

    积分
    83
    发表于 2021-3-18 18:47:32 | 显示全部楼层
    非常不错的片子,感谢分享
    回复

    使用道具 举报

  • TA的每日心情
    开心
    昨天 00:00
  • 签到天数: 194 天

    [LV.7]常住居民III

    0

    主题

    763

    帖子

    83

    积分

    中级影迷

    Rank: 3Rank: 3

    积分
    83
    发表于 2021-3-18 18:47:54 | 显示全部楼层
    非常不错的片子,感谢分享
    回复

    使用道具 举报

  • TA的每日心情
    开心
    昨天 07:03
  • 签到天数: 268 天

    [LV.8]以坛为家I

    1

    主题

    3016

    帖子

    543

    积分

    专业影迷

    Rank: 8Rank: 8

    积分
    543
    发表于 2021-3-18 19:22:37 | 显示全部楼层
    谢谢楼主分享
    回复

    使用道具 举报

    您需要登录后才可以回帖 登录 | 立即注册

    本版积分规则

    QQ|Archiver|手机版|小黑屋|影迷乐园

    GMT+8, 2021-4-15 06:42 , Processed in 0.071624 second(s), 28 queries .

    Powered by Discuz! X3.4

    Copyright © 2001-2020, Tencent Cloud.

    快速回复 返回顶部 返回列表