请选择 进入手机版 | 继续访问电脑版

YMLY-影迷乐园-特效字幕 蓝光原盘 1080P 高清动漫电影电视剧

 找回密码
 立即注册
搜索
查看: 669|回复: 59

[美国] [115+百度][1997][千钧一发][国英双语.简中.中英字幕][24.33GB][MKV][Gattaca.1997.UHD.2160p.x265.10bit.HDR.3Audio.mUHD-FRDS]

  [复制链接]
  • TA的每日心情
    奋斗
    2020-2-21 00:36
  • 签到天数: 656 天

    [LV.9]以坛为家II

    1万

    主题

    1万

    帖子

    9万

    积分

    超级版主

    与齐同行,是最初的梦想,也是一辈子的执着~

    Rank: 16Rank: 16Rank: 16Rank: 16

    积分
    93141

    内测勋章最佳新人十二生肖之猴VIP包月勋章影迷男神小土豪勋章土豪勋章富甲一方精华勋章金话筒主题达人灌水之王

    发表于 2021-3-25 07:10:34 | 显示全部楼层 |阅读模式
    下载说明:

    百度网盘分享极其不稳定,如有链接失效,请第一时间站内短消息通知我,上线后会第一时间补发!请大家多多谅解!电驴链接只能115会员离线下载,其它工具都下载不了!


    ----转载自FRDS,感谢压制和原发布人员,特此鸣谢!----



    ◎译  名 千钧一发 / 伽蒂卡 / 变种异煞(港) / 基因代码 / 太空梦 / 戛塔卡 / 自然人
    ◎片  名 Gattaca
    ◎年  代 1997
    ◎产  地 美国
    ◎类  别 剧情 / 科幻 / 惊悚
    ◎语  言 英语 / 世界语
    ◎上映日期 1997-10-24(美国)
    ◎IMDb评分  7.8/10 from 281048 users
    ◎IMDb链接  https://www.imdb.com/title/tt0119177
    ◎豆瓣评分 8.8/10 from 203784 users
    ◎豆瓣链接 https://movie.douban.com/subject/1300117/
    ◎片  长 106分钟
    ◎导  演 安德鲁·尼科尔 Andrew Niccol
    ◎编  剧 安德鲁·尼科尔 Andrew Niccol
    ◎主  演 伊桑·霍克 Ethan Hawke
           乌玛·瑟曼 Uma Thurman
           裘德·洛 Jude Law
           艾伦·阿金 Alan Arkin
           戈尔·维达尔 Gore Vidal
           山德·贝克利 Xander Berkeley
           劳恩·迪恩 Loren Dean
           简妮·布鲁克 Jayne Brook
           伊莱亚斯·科泰斯 Elias Koteas
           玛娅·鲁道夫 Maya Rudolph
           伍娜·戴蒙 Una Damon
           布莱尔·安德伍德 Blair Underwood
           梅森·甘布 Mason Gamble
           威廉姆·李·斯科特 William Lee Scott
           欧内斯特·博格宁 Ernest Borgnine
           托尼·夏尔赫布 Tony Shalhoub
           肯·马里诺 Ken Marino
           加布里埃尔·瑞丝 Gabrielle Reece
           迪恩·诺里斯 Dean Norris
           丹格里芬 Dan Griffin
           格雷戈·赛斯特罗 Greg Sestero
           Elizabeth Dennehy
           查德·克里斯特 Chad Christ
           George Marshall Ruge
           Vincent Nielson


    ◎标  签 科幻 | 美国 | 人性 | 励志 | 剧情 | 经典 | 悬疑 | 1997

    ◎简  介  

      未来的世界,科技的力量胜过一切,基因决定命运,几乎成为金科玉律。不幸文森特(伊桑•霍克 Ethan Hawke  饰)是一个基因不良的人,出生以来就决定了他近视和心脏病的缺陷,他只能活到30岁。于是父母为文森特增添了一个有着优良基因的弟弟。文森特的梦想是漫游太空,然而恶劣的基因令他无法圆梦,直到他遇到了太空中心的杰罗姆(裘德•洛 Jude Law  饰)。杰罗姆有优秀的基因,却在一次意外中半身瘫痪。二人决定调换身份,文森特千方百计隐藏自己的基因信息,每天都认真清洗掉自己的皮屑毛发,不暴露任何蛛丝马迹。另一方面,杰罗姆帮他筹备进入太空前需要检查的基因物品。事情进展得非常顺利,然而一桩谋杀案和一根睫毛,让事情节外生枝。

    ◎获奖情况  

      第70届奥斯卡金像奖(1998)
      最佳艺术指导(提名) 南希·奈 / 扬·鲁洛尔夫斯

      第55届金球奖(1998)
      电影类 最佳原创配乐(提名) 迈克尔·尼曼
    1. General
    2. Unique ID                      : 223399688213612598105315561435836506930 (0xA81137045313773CCC00692DD59CE332)
    3. Format                         : Matroska
    4. Format version                 : Version 4
    5. File size                      : 24.3 GiB
    6. Duration                       : 1 h 46 min
    7. Overall bit rate mode          : Variable
    8. Overall bit rate               : 32.7 Mb/s
    9. Encoded date                   : UTC 2021-03-18 11:57:09
    10. Writing application            : mkvmerge v53.0.0 ('Fool's Gold') 64-bit
    11. Writing library                : libebml v1.4.1 + libmatroska v1.6.2

    12. Video
    13. ID                             : 1
    14. Format                         : HEVC
    15. Format/Info                    : High Efficiency Video Coding
    16. Format profile                 : Main 10@L5.1@High
    17. HDR format                     : SMPTE ST 2086, HDR10 compatible
    18. Codec ID                       : V_MPEGH/ISO/HEVC
    19. Duration                       : 1 h 46 min
    20. Bit rate                       : 26.9 Mb/s
    21. Width                          : 3 840 pixels
    22. Height                         : 1 608 pixels
    23. Display aspect ratio           : 2.40:1
    24. Frame rate mode                : Constant
    25. Frame rate                     : 23.976 (24000/1001) FPS
    26. Color space                    : YUV
    27. Chroma subsampling             : 4:2:0
    28. Bit depth                      : 10 bits
    29. Bits/(Pixel*Frame)             : 0.181
    30. Stream size                    : 20.0 GiB (82%)
    31. Writing library                : x265 3.3+3-g8f8e332f1+29:[Windows][#Erg`Djh#][@Yuuki] made by @Dongfangbubai
    32. Encoding settings              : rc=crf / crf=18.0000 / qcomp=0.70 / qpstep=4 / stats-write=0 / stats-read=0 / vbv-maxrate=160000 / vbv-bufsize=160000 / vbv-init=0.9 / crf-max=0.0 / crf-min=0.0 / no-lossless / no-cu-lossless / aq-mode=3 / aq-strength=0.80 / cbqpoffs=-3 / crqpoffs=-3 / ipratio=1.40 / pbratio=1.30 / psy-rd=2.00 / psy-rdoq=3.00 / deblock=-1:-1 / ref=5 / limit-refs=0 / no-limit-modes / bframes=8 / b-adapt=2 / bframe-bias=0 / b-pyramid / b-intra / weightp / weightb / min-keyint=23 / max-keyint=240 / rc-lookahead=60 / gop-lookahead=0 / scenecut=40 / hist-scenecut=0 / radl=0 / max-cu-size=32 / min-cu-size=8 / me=3 / subme=4 / merange=25 / rdoq-level=2 / rd=4 / rdpenalty=1 / dynamic-rd=0.00 / no-rd-refine / ----- / no-cutree / no-sao / no-rect / no-amp / no-open-gop / wpp / pmode / pme / no-psnr / no-ssim / nr-intra=0 / nr-inter=0 / no-constrained-intra / no-strong-intra-smoothing / max-tu-size=32 / tu-inter-depth=2 / tu-intra-depth=2 / limit-tu=0 / qg-size=32 / qpmax=69 / qpmin=0 / ----- / cpuid=1176575 / frame-threads=6 / numa-pools=54,- / log-level=2 / input-csp=1 / input-res=3840x1608 / interlace=0 / level-idc=0 / high-tier=1 / uhd-bd=0 / no-allow-non-conformance / repeat-headers / no-aud / hrd / info / hash=0 / no-temporal-layers / lookahead-slices=0 / no-splice / no-intra-refresh / no-ssim-rd / signhide / no-tskip / max-merge=3 / temporal-mvp / no-frame-dup / no-hme / no-analyze-src-pics / no-sao-non-deblock / selective-sao=0 / no-early-skip / no-rskip / no-fast-intra / no-tskip-fast / no-splitrd-skip / zone-count=0 / no-strict-cbr / no-rc-grain / no-const-vbv / sar=0 / overscan=0 / videoformat=5 / range=0 / colorprim=9 / transfer=16 / colormatrix=9 / chromaloc=0 / display-window=0 / master-display=G(13250,34500)B(7500,3000)R(34000,16000)WP(15635,16450)L(40000000,50) / cll=5340,514 / min-luma=0 / max-luma=1023 / log2-max-poc-lsb=8 / vui-timing-info / vui-hrd-info / slices=1 / no-opt-qp-pps / no-opt-ref-list-length-pps / no-multi-pass-opt-rps / scenecut-bias=0.05 / hist-threshold=0.01 / no-opt-cu-delta-qp / no-aq-motion / hdr10 / hdr10-opt / no-dhdr10-opt / no-idr-recovery-sei / analysis-reuse-level=0 / analysis-save-reuse-level=0 / analysis-load-reuse-level=0 / scale-factor=0 / refine-intra=0 / refine-inter=0 / refine-mv=1 / refine-ctu-distortion=0 / no-limit-sao / ctu-info=0 / no-lowpass-dct / refine-analysis-type=0 / copy-pic=1 / max-ausize-factor=1.0 / no-dynamic-refine / no-single-sei / no-hevc-aq / no-svt / no-field / qp-adaptation-range=1.00 / no-scenecut-aware-qpconformance-window-offsets / right=0 / bottom=0
    33. Default                        : Yes
    34. Forced                         : No
    35. Color range                    : Limited
    36. Color primaries                : BT.2020
    37. Transfer characteristics       : PQ
    38. Matrix coefficients            : BT.2020 non-constant
    39. Mastering display color primar : Display P3
    40. Mastering display luminance    : min: 0.0050 cd/m2, max: 4000 cd/m2
    41. Maximum Content Light Level    : 5340 cd/m2
    42. Maximum Frame-Average Light Le : 514 cd/m2

    43. Audio #1
    44. ID                             : 2
    45. Format                         : MLP FBA 16-ch
    46. Format/Info                    : Meridian Lossless Packing FBA with 16-channel presentation
    47. Commercial name                : Dolby TrueHD with Dolby Atmos
    48. Codec ID                       : A_TRUEHD
    49. Duration                       : 1 h 46 min
    50. Bit rate mode                  : Variable
    51. Bit rate                       : 4 640 kb/s
    52. Maximum bit rate               : 7 479 kb/s
    53. Channel(s)                     : 8 channels
    54. Channel layout                 : L R C LFE Ls Rs Lb Rb
    55. Sampling rate                  : 48.0 kHz
    56. Frame rate                     : 1 200.000 FPS (40 SPF)
    57. Compression mode               : Lossless
    58. Delay relative to video        : 17 ms
    59. Stream size                    : 3.45 GiB (14%)
    60. Title                          : 英语
    61. Language                       : English
    62. Default                        : Yes
    63. Forced                         : No
    64. Number of dynamic objects      : 11
    65. Bed channel count              : 1 channel
    66. Bed channel configuration      : LFE

    67. Audio #2
    68. ID                             : 3
    69. Format                         : AC-3
    70. Format/Info                    : Audio Coding 3
    71. Commercial name                : Dolby Digital
    72. Codec ID                       : A_AC3
    73. Duration                       : 1 h 46 min
    74. Bit rate mode                  : Constant
    75. Bit rate                       : 640 kb/s
    76. Channel(s)                     : 6 channels
    77. Channel layout                 : L R C LFE Ls Rs
    78. Sampling rate                  : 48.0 kHz
    79. Frame rate                     : 31.250 FPS (1536 SPF)
    80. Compression mode               : Lossy
    81. Delay relative to video        : 1 s 274 ms
    82. Stream size                    : 487 MiB (2%)
    83. Title                          : 央视国语
    84. Language                       : Chinese
    85. Service kind                   : Complete Main
    86. Default                        : No
    87. Forced                         : No

    88. Audio #3
    89. ID                             : 4
    90. Format                         : AC-3
    91. Format/Info                    : Audio Coding 3
    92. Commercial name                : Dolby Digital
    93. Codec ID                       : A_AC3
    94. Duration                       : 1 h 46 min
    95. Bit rate mode                  : Constant
    96. Bit rate                       : 448 kb/s
    97. Channel(s)                     : 6 channels
    98. Channel layout                 : L R C LFE Ls Rs
    99. Sampling rate                  : 48.0 kHz
    100. Frame rate                     : 31.250 FPS (1536 SPF)
    101. Compression mode               : Lossy
    102. Delay relative to video        : 2 s 16 ms
    103. Stream size                    : 341 MiB (1%)
    104. Title                          : 六区国语
    105. Language                       : Chinese
    106. Service kind                   : Complete Main
    107. Default                        : No
    108. Forced                         : No

    109. Text #1
    110. ID                             : 5
    111. Format                         : PGS
    112. Muxing mode                    : zlib
    113. Codec ID                       : S_HDMV/PGS
    114. Codec ID/Info                  : Picture based subtitle format used on BDs/HD-DVDs
    115. Duration                       : 1 h 38 min
    116. Bit rate                       : 23.1 kb/s
    117. Count of elements              : 1737
    118. Stream size                    : 16.3 MiB (0%)
    119. Title                          : 英文
    120. Language                       : English
    121. Default                        : Yes
    122. Forced                         : No

    123. Text #2
    124. ID                             : 6
    125. Format                         : PGS
    126. Muxing mode                    : zlib
    127. Codec ID                       : S_HDMV/PGS
    128. Codec ID/Info                  : Picture based subtitle format used on BDs/HD-DVDs
    129. Duration                       : 1 h 42 min
    130. Bit rate                       : 20.3 kb/s
    131. Count of elements              : 1431
    132. Stream size                    : 14.8 MiB (0%)
    133. Title                          : 原盘繁中
    134. Language                       : Chinese
    135. Default                        : No
    136. Forced                         : No

    137. Text #3
    138. ID                             : 7
    139. Format                         : PGS
    140. Muxing mode                    : zlib
    141. Codec ID                       : S_HDMV/PGS
    142. Codec ID/Info                  : Picture based subtitle format used on BDs/HD-DVDs
    143. Duration                       : 1 h 42 min
    144. Bit rate                       : 21.1 kb/s
    145. Count of elements              : 1747
    146. Stream size                    : 15.4 MiB (0%)
    147. Title                          : 简中
    148. Language                       : Chinese
    149. Default                        : No
    150. Forced                         : No

    151. Text #4
    152. ID                             : 8
    153. Format                         : PGS
    154. Muxing mode                    : zlib
    155. Codec ID                       : S_HDMV/PGS
    156. Codec ID/Info                  : Picture based subtitle format used on BDs/HD-DVDs
    157. Duration                       : 1 h 42 min
    158. Bit rate                       : 35.4 kb/s
    159. Count of elements              : 1799
    160. Stream size                    : 26.0 MiB (0%)
    161. Title                          : 双语
    162. Language                       : Chinese
    163. Default                        : No
    164. Forced                         : No

    165. Menu
    166. 00:00:00.000                   : en:Chapter 01
    167. 00:07:39.083                   : en:Chapter 02
    168. 00:10:58.491                   : en:Chapter 03
    169. 00:18:49.711                   : en:Chapter 04
    170. 00:23:40.210                   : en:Chapter 05
    171. 00:31:38.730                   : en:Chapter 06
    172. 00:37:20.947                   : en:Chapter 07
    173. 00:43:47.541                   : en:Chapter 08
    174. 00:48:39.207                   : en:Chapter 09
    175. 00:56:10.867                   : en:Chapter 10
    176. 01:03:50.409                   : en:Chapter 11
    177. 01:08:56.257                   : en:Chapter 12
    178. 01:17:00.949                   : en:Chapter 13
    179. 01:22:14.387                   : en:Chapter 14
    180. 01:28:35.518                   : en:Chapter 15
    181. 01:34:10.728                   : en:Chapter 16
    复制代码







    购买主题 已有 29 人购买  本主题需向作者支付 30 大洋 才能浏览
    郑重声明:
    本人提供的所有影视作品均是在网上搜集,任何涉及商业盈利目的均不得使用,否则产生的一切后果将由您自己承担!
    本人不对本人所发布的任何内容负任何法律责任!该下载内容仅做宽带测试使用,请在下载后24小时内删除。请购买正版!
    本人列出的文件没有保存在本站的服务器上,本人仅负责连接,本人对被传播文件的内容一无所知。
    如侵犯视频原作者或发行商版权,请联系本人删除!
    回复

    使用道具 举报

  • TA的每日心情
    开心
    2021-2-17 16:20
  • 签到天数: 1 天

    [LV.1]初来乍到

    0

    主题

    286

    帖子

    182

    积分

    高级影迷

    Rank: 4

    积分
    182
    发表于 2021-3-25 08:06:40 | 显示全部楼层
    感谢楼主分享
    回复

    使用道具 举报

  • TA的每日心情
    开心
    昨天 08:40
  • 签到天数: 21 天

    [LV.4]偶尔看看III

    0

    主题

    342

    帖子

    20

    积分

    入门影迷

    Rank: 1

    积分
    20
    发表于 2021-3-25 08:21:07 | 显示全部楼层
    感谢分享。。。。。。
    回复

    使用道具 举报

  • TA的每日心情
    开心
    2020-12-17 13:37
  • 签到天数: 236 天

    [LV.7]常住居民III

    11

    主题

    2602

    帖子

    942

    积分

    ★★VIP6★★

    Rank: 22Rank: 22Rank: 22Rank: 22Rank: 22Rank: 22

    积分
    942

    小土豪勋章土豪勋章影迷男神十二生肖之猴天秤座勋章

    发表于 2021-3-25 08:49:46 | 显示全部楼层
    感谢分享。
    1
    回复

    使用道具 举报

  • TA的每日心情
    开心
    昨天 08:48
  • 签到天数: 44 天

    [LV.5]常住居民I

    0

    主题

    321

    帖子

    39

    积分

    初级影迷

    Rank: 2

    积分
    39
    发表于 2021-3-25 08:50:20 | 显示全部楼层
    文件有点大
    ~~~~~~~~~~~~
    回复

    使用道具 举报

  • TA的每日心情

    昨天 10:45
  • 签到天数: 206 天

    [LV.7]常住居民III

    0

    主题

    1576

    帖子

    116

    积分

    中级影迷

    Rank: 3Rank: 3

    积分
    116
    发表于 2021-3-25 08:51:11 | 显示全部楼层
    感谢楼主分享!
    回复

    使用道具 举报

  • TA的每日心情
    擦汗
    昨天 13:58
  • 签到天数: 20 天

    [LV.4]偶尔看看III

    1

    主题

    225

    帖子

    81

    积分

    中级影迷

    Rank: 3Rank: 3

    积分
    81
    发表于 2021-3-25 08:53:12 | 显示全部楼层
    感谢楼主分享
    回复

    使用道具 举报

  • TA的每日心情
    开心
    昨天 07:02
  • 签到天数: 37 天

    [LV.5]常住居民I

    2

    主题

    87

    帖子

    48

    积分

    初级影迷

    Rank: 2

    积分
    48
    发表于 2021-3-25 09:45:55 | 显示全部楼层
    感谢楼主分享
    回复

    使用道具 举报

  • TA的每日心情
    开心
    昨天 07:02
  • 签到天数: 37 天

    [LV.5]常住居民I

    2

    主题

    87

    帖子

    48

    积分

    初级影迷

    Rank: 2

    积分
    48
    发表于 2021-3-25 09:47:10 | 显示全部楼层
    感谢楼主分享
    回复

    使用道具 举报

  • TA的每日心情
    擦汗
    昨天 09:03
  • 签到天数: 37 天

    [LV.5]常住居民I

    0

    主题

    400

    帖子

    93

    积分

    中级影迷

    Rank: 3Rank: 3

    积分
    93
    发表于 2021-3-25 09:48:08 | 显示全部楼层
    感谢分享,好人一胎生108个儿子!
    回复

    使用道具 举报

    您需要登录后才可以回帖 登录 | 立即注册

    本版积分规则

    QQ|Archiver|手机版|小黑屋|影迷乐园

    GMT+8, 2021-4-15 06:37 , Processed in 0.067259 second(s), 28 queries .

    Powered by Discuz! X3.4

    Copyright © 2001-2020, Tencent Cloud.

    快速回复 返回顶部 返回列表