请选择 进入手机版 | 继续访问电脑版

YMLY-影迷乐园-特效字幕 蓝光原盘 1080P 高清动漫电影电视剧

 找回密码
 立即注册
搜索
查看: 381|回复: 45

[美国] [115+百度][2020][心灵奇旅][国英双语.简.英.中英字幕][13.23GB][MKV][Soul.2020.UHD.2160p.x265.10bit.HDR.2Audio.mUHD-FRDS]

[复制链接]
  • TA的每日心情
    奋斗
    2020-2-21 00:36
  • 签到天数: 656 天

    [LV.9]以坛为家II

    1万

    主题

    1万

    帖子

    9万

    积分

    超级版主

    与齐同行,是最初的梦想,也是一辈子的执着~

    Rank: 16Rank: 16Rank: 16Rank: 16

    积分
    93142

    内测勋章最佳新人十二生肖之猴VIP包月勋章影迷男神小土豪勋章土豪勋章富甲一方精华勋章金话筒主题达人灌水之王

    发表于 2021-3-31 23:55:03 | 显示全部楼层 |阅读模式
    下载说明:

    百度网盘分享极其不稳定,如有链接失效,请第一时间站内短消息通知我,上线后会第一时间补发!请大家多多谅解!电驴链接只能115会员离线下载,其它工具都下载不了!


    ----转载自FRDS,感谢压制和原发布人员,特此鸣谢!----


    制作说明:

    1.压制洞房不败;
    2.重混中影国语DD5.1来自bobo@cnlang授权使用;
    3.精校国配字幕由skley@cnlang授权使用;双语字幕来自字幕库;
    4.非常感谢诸神的辛苦创作,以上素材若无原作者授权,不可提取二发或他用。
    **更多国语精品音轨与特效字幕请移步国语视界论坛**






    ◎译  名 心灵奇旅 / 心灵 / 灵魂 / 灵魂奇遇记(港) / 灵魂急转弯(台)
    ◎片  名 Soul
    ◎年  代 2020
    ◎产  地 美国
    ◎类  别 动画 / 音乐 / 奇幻
    ◎语  言 英语
    ◎上映日期 2020-10-11(伦敦电影节) / 2020-12-25(中国大陆/美国网络)
    ◎IMDb评分  7.8/10 from 679 users
    ◎IMDb链接  https://www.imdb.com/title/tt2948372
    ◎豆瓣评分 9.2/10 from 1358 users
    ◎豆瓣链接 https://movie.douban.com/subject/24733428/
    ◎片  长 101分钟
    ◎导  演 彼特·道格特 Pete Docter / 坎普·鲍尔斯 Kemp Powers
    ◎编  剧 彼特·道格特 Pete Docter / 麦克·琼斯 Mike Jones / 坎普·鲍尔斯 Kemp Powers
    ◎主  演 杰米·福克斯 Jamie Foxx
           蒂娜·菲 Tina Fey
           约翰·拉岑贝格 John Ratzenberger
           戴维德·迪格斯 Daveed Diggs
           菲利西亚·拉斯海德 Phylicia Rashad
           阿米尔-哈利卜·汤普森 Ahmir-Khalib Thompson


    ◎标  签 皮克斯 | 动画 | 迪士尼 | Pixar | 动画电影 | 美国 | 2020 | 〓PIXAR〓

    ◎简  介  

      主角Gardner是一个生活很容易看穿的中学音乐老师,而他真正的梦想是弹钢琴——不是像他现在做的一样只教孩子们弹钢琴,而是以做音乐、做爵士乐来谋生。当他终于拿到人生第一份音乐人的工作,却不小心掉进了下水道“死”了,并在一个黑洞中醒来,成为了一个孤独的灵魂。不久,它发现自己不是独自一魂,而是到了YOU研讨会,另一个外号叫22的灵魂已经参加了研讨会数百年,它极度憎恨人类,一直未去附体。很快的,Gardner和22一起回到现实世界,在那里,Gardner将学会“有了灵魂”真正的含义。

    ◎获奖情况  

      第73届戛纳电影节(2020)
      动画片(提名)

      第46届洛杉矶影评人协会奖(2020)
      最佳配乐 特伦特·雷诺 / 阿提喀斯·罗斯
      最佳动画片(提名)

      第33届芝加哥影评人协会奖(2020)
      最佳原创剧本(提名) 麦克·琼斯 / 彼特·道格特 / 坎普·鲍尔斯
      最佳动画片(提名)
      最佳原创配乐 特伦特·雷诺 / 阿提喀斯·罗斯 / 乔纳森·巴蒂斯特
    1. General
    2. Unique ID                                : 133607068723841093616883284414512721316 (0x6483C912D6B157641F46E6938C6B6DA4)
    3. Complete name                            : Soul.2020.UHD.2160p.x265.10bit.HDR.2Audio.mUHD-FRDS.mkv
    4. Format                                   : Matroska
    5. Format version                           : Version 4
    6. File size                                : 13.2 GiB
    7. Duration                                 : 1 h 40 min
    8. Overall bit rate mode                    : Variable
    9. Overall bit rate                         : 18.8 Mb/s
    10. Encoded date                             : UTC 2021-03-22 13:18:09
    11. Writing application                      : mkvmerge v53.0.0 (‘Fool‘s Gold‘) 64-bit
    12. Writing library                          : libebml v1.4.1 + libmatroska v1.6.2

    13. Video
    14. ID                                       : 1
    15. Format                                   : HEVC
    16. Format/Info                              : High Efficiency Video Coding
    17. Format profile                           : Main 10@L5.1@High
    18. HDR format                               : SMPTE ST 2086, HDR10 compatible
    19. Codec ID                                 : V_MPEGH/ISO/HEVC
    20. Duration                                 : 1 h 40 min
    21. Bit rate                                 : 12.3 Mb/s
    22. Width                                    : 3 840 pixels
    23. Height                                   : 1 608 pixels
    24. Display aspect ratio                     : 2.40:1
    25. Frame rate mode                          : Constant
    26. Frame rate                               : 23.976 (24000/1001) FPS
    27. Color space                              : YUV
    28. Chroma subsampling                       : 4:2:0
    29. Bit depth                                : 10 bits
    30. Bits/(Pixel*Frame)                       : 0.083
    31. Stream size                              : 8.64 GiB (65%)
    32. Writing library                          : x265 3.3+3-g8f8e332f1+29:[Windows][#Erg`Djh#][@Yuuki] made by @Dongfangbubai
    33. Encoding settings                        : rc=crf / crf=18.0000 / qcomp=0.70 / qpstep=4 / stats-write=0 / stats-read=0 / vbv-maxrate=160000 / vbv-bufsize=160000 / vbv-init=0.9 / crf-max=0.0 / crf-min=0.0 / no-lossless / no-cu-lossless / aq-mode=3 / aq-strength=0.80 / cbqpoffs=-3 / crqpoffs=-3 / ipratio=1.40 / pbratio=1.30 / psy-rd=2.00 / psy-rdoq=3.00 / deblock=-1:-1 / ref=5 / limit-refs=0 / no-limit-modes / bframes=8 / b-adapt=2 / bframe-bias=0 / b-pyramid / b-intra / weightp / weightb / min-keyint=23 / max-keyint=240 / rc-lookahead=60 / gop-lookahead=0 / scenecut=40 / hist-scenecut=0 / radl=0 / max-cu-size=32 / min-cu-size=8 / me=3 / subme=4 / merange=25 / rdoq-level=2 / rd=4 / rdpenalty=1 / dynamic-rd=0.00 / no-rd-refine / ----- / no-cutree / no-sao / no-rect / no-amp / no-open-gop / wpp / pmode / pme / no-psnr / no-ssim / nr-intra=0 / nr-inter=0 / no-constrained-intra / no-strong-intra-smoothing / max-tu-size=32 / tu-inter-depth=2 / tu-intra-depth=2 / limit-tu=0 / qg-size=32 / qpmax=69 / qpmin=0 / ----- / cpuid=1176575 / frame-threads=6 / numa-pools=54,- / log-level=2 / input-csp=1 / input-res=3840x1608 / interlace=0 / level-idc=0 / high-tier=1 / uhd-bd=0 / no-allow-non-conformance / repeat-headers / no-aud / hrd / info / hash=0 / no-temporal-layers / lookahead-slices=0 / no-splice / no-intra-refresh / no-ssim-rd / signhide / no-tskip / max-merge=3 / temporal-mvp / no-frame-dup / no-hme / no-analyze-src-pics / no-sao-non-deblock / selective-sao=0 / no-early-skip / no-rskip / no-fast-intra / no-tskip-fast / no-splitrd-skip / zone-count=0 / no-strict-cbr / no-rc-grain / no-const-vbv / sar=0 / overscan=0 / videoformat=5 / range=0 / colorprim=9 / transfer=16 / colormatrix=9 / chromaloc=0 / display-window=0 / master-display=G(13250,34500)B(7500,3000)R(34000,16000)WP(15635,16450)L(10000000,0) / cll=0,0 / min-luma=0 / max-luma=1023 / log2-max-poc-lsb=8 / vui-timing-info / vui-hrd-info / slices=1 / no-opt-qp-pps / no-opt-ref-list-length-pps / no-multi-pass-opt-rps / scenecut-bias=0.05 / hist-threshold=0.01 / no-opt-cu-delta-qp / no-aq-motion / hdr10 / hdr10-opt / no-dhdr10-opt / no-idr-recovery-sei / analysis-reuse-level=0 / analysis-save-reuse-level=0 / analysis-load-reuse-level=0 / scale-factor=0 / refine-intra=0 / refine-inter=0 / refine-mv=1 / refine-ctu-distortion=0 / no-limit-sao / ctu-info=0 / no-lowpass-dct / refine-analysis-type=0 / copy-pic=1 / max-ausize-factor=1.0 / no-dynamic-refine / no-single-sei / no-hevc-aq / no-svt / no-field / qp-adaptation-range=1.00 / no-scenecut-aware-qpconformance-window-offsets / right=0 / bottom=0
    34. Default                                  : Yes
    35. Forced                                   : No
    36. Color range                              : Limited
    37. Color primaries                          : BT.2020
    38. Transfer characteristics                 : PQ
    39. Matrix coefficients                      : BT.2020 non-constant
    40. Mastering display color primaries        : Display P3
    41. Mastering display luminance              : min: 0.0000 cd/m2, max: 1000 cd/m2

    42. Audio #1
    43. ID                                       : 2
    44. Format                                   : MLP FBA 16-ch
    45. Format/Info                              : Meridian Lossless Packing FBA with 16-channel presentation
    46. Commercial name                          : Dolby TrueHD with Dolby Atmos
    47. Codec ID                                 : A_TRUEHD
    48. Duration                                 : 1 h 40 min
    49. Bit rate mode                            : Variable
    50. Bit rate                                 : 5 763 kb/s
    51. Maximum bit rate                         : 9 087 kb/s
    52. Channel(s)                               : 8 channels
    53. Channel layout                           : L R C LFE Ls Rs Lb Rb
    54. Sampling rate                            : 48.0 kHz
    55. Frame rate                               : 1 200.000 FPS (40 SPF)
    56. Compression mode                         : Lossless
    57. Stream size                              : 4.05 GiB (31%)
    58. Title                                    : 英语
    59. Language                                 : English
    60. Default                                  : Yes
    61. Forced                                   : No
    62. Number of dynamic objects                : 13
    63. Bed channel count                        : 1 channel
    64. Bed channel configuration                : LFE

    65. Audio #2
    66. ID                                       : 3
    67. Format                                   : AC-3
    68. Format/Info                              : Audio Coding 3
    69. Commercial name                          : Dolby Digital
    70. Codec ID                                 : A_AC3
    71. Duration                                 : 1 h 40 min
    72. Bit rate mode                            : Constant
    73. Bit rate                                 : 640 kb/s
    74. Channel(s)                               : 6 channels
    75. Channel layout                           : L R C LFE Ls Rs
    76. Sampling rate                            : 48.0 kHz
    77. Frame rate                               : 31.250 FPS (1536 SPF)
    78. Compression mode                         : Lossy
    79. Delay relative to video                  : 16 ms
    80. Stream size                              : 460 MiB (3%)
    81. Title                                    : 中影国语
    82. Language                                 : Chinese
    83. Service kind                             : Complete Main
    84. Default                                  : No
    85. Forced                                   : No

    86. Text #1
    87. ID                                       : 4
    88. Format                                   : PGS
    89. Muxing mode                              : zlib
    90. Codec ID                                 : S_HDMV/PGS
    91. Codec ID/Info                            : Picture based subtitle format used on BDs/HD-DVDs
    92. Duration                                 : 1 h 40 min
    93. Bit rate                                 : 51.2 kb/s
    94. Count of elements                        : 3710
    95. Stream size                              : 36.8 MiB (0%)
    96. Title                                    : 英文
    97. Language                                 : English
    98. Default                                  : Yes
    99. Forced                                   : No

    100. Text #2
    101. ID                                       : 5
    102. Format                                   : PGS
    103. Muxing mode                              : zlib
    104. Codec ID                                 : S_HDMV/PGS
    105. Codec ID/Info                            : Picture based subtitle format used on BDs/HD-DVDs
    106. Duration                                 : 1 h 39 min
    107. Bit rate                                 : 33.1 kb/s
    108. Count of elements                        : 2298
    109. Stream size                              : 23.7 MiB (0%)
    110. Title                                    : 国配简中
    111. Language                                 : Chinese
    112. Default                                  : No
    113. Forced                                   : No

    114. Text #3
    115. ID                                       : 6
    116. Format                                   : PGS
    117. Muxing mode                              : zlib
    118. Codec ID                                 : S_HDMV/PGS
    119. Codec ID/Info                            : Picture based subtitle format used on BDs/HD-DVDs
    120. Duration                                 : 1 h 39 min
    121. Bit rate                                 : 58.3 kb/s
    122. Count of elements                        : 3183
    123. Stream size                              : 41.7 MiB (0%)
    124. Title                                    : 双语
    125. Language                                 : Chinese
    126. Default                                  : No
    127. Forced                                   : No
    复制代码








    购买主题 已有 37 人购买  本主题需向作者支付 20 大洋 才能浏览
    郑重声明:
    本人提供的所有影视作品均是在网上搜集,任何涉及商业盈利目的均不得使用,否则产生的一切后果将由您自己承担!
    本人不对本人所发布的任何内容负任何法律责任!该下载内容仅做宽带测试使用,请在下载后24小时内删除。请购买正版!
    本人列出的文件没有保存在本站的服务器上,本人仅负责连接,本人对被传播文件的内容一无所知。
    如侵犯视频原作者或发行商版权,请联系本人删除!
    回复

    使用道具 举报

  • TA的每日心情
    慵懒
    6 小时前
  • 签到天数: 195 天

    [LV.7]常住居民III

    2

    主题

    475

    帖子

    80

    积分

    中级影迷

    Rank: 3Rank: 3

    积分
    80
    发表于 2021-4-1 00:19:56 | 显示全部楼层
    这个版本是绝对高配了,必须顶一个呀
    回复

    使用道具 举报

  • TA的每日心情
    奋斗
    前天 16:40
  • 签到天数: 195 天

    [LV.7]常住居民III

    11

    主题

    746

    帖子

    64

    积分

    初级影迷

    Rank: 2

    积分
    64
    发表于 2021-4-1 01:38:48 | 显示全部楼层
    这个必须收藏!
    回复

    使用道具 举报

  • TA的每日心情
    开心
    2021-2-17 16:20
  • 签到天数: 1 天

    [LV.1]初来乍到

    0

    主题

    286

    帖子

    182

    积分

    高级影迷

    Rank: 4

    积分
    182
    发表于 2021-4-1 07:49:40 | 显示全部楼层
    感谢楼主分享
    回复

    使用道具 举报

  • TA的每日心情

    2019-10-24 00:15
  • 签到天数: 5 天

    [LV.2]偶尔看看I

    0

    主题

    1494

    帖子

    148

    积分

    中级影迷

    Rank: 3Rank: 3

    积分
    148
    发表于 2021-4-1 08:03:49 | 显示全部楼层
    感谢分享。  
    回复

    使用道具 举报

  • TA的每日心情
    开心
    2020-12-17 13:37
  • 签到天数: 236 天

    [LV.7]常住居民III

    11

    主题

    2602

    帖子

    942

    积分

    ★★VIP6★★

    Rank: 22Rank: 22Rank: 22Rank: 22Rank: 22Rank: 22

    积分
    942

    小土豪勋章土豪勋章影迷男神十二生肖之猴天秤座勋章

    发表于 2021-4-1 09:08:00 | 显示全部楼层
    这个必须支持
    1
    回复

    使用道具 举报

  • TA的每日心情
    开心
    昨天 01:01
  • 签到天数: 301 天

    [LV.8]以坛为家I

    0

    主题

    1125

    帖子

    57

    积分

    初级影迷

    Rank: 2

    积分
    57
    发表于 2021-4-1 09:28:01 | 显示全部楼层
    感谢楼主分享
    回复

    使用道具 举报

  • TA的每日心情

    昨天 10:12
  • 签到天数: 199 天

    [LV.7]常住居民III

    0

    主题

    602

    帖子

    71

    积分

    中级影迷

    Rank: 3Rank: 3

    积分
    71
    发表于 2021-4-1 09:42:53 | 显示全部楼层
    谢谢楼主分享
    回复

    使用道具 举报

  • TA的每日心情
    开心
    2019-9-6 14:16
  • 签到天数: 1 天

    [LV.1]初来乍到

    5

    主题

    720

    帖子

    86

    积分

    中级影迷

    Rank: 3Rank: 3

    积分
    86
    发表于 2021-4-1 10:17:48 | 显示全部楼层
    这个版本是绝对高配了
    回复

    使用道具 举报

  • TA的每日心情
    开心
    昨天 09:28
  • 签到天数: 123 天

    [LV.7]常住居民III

    0

    主题

    145

    帖子

    174

    积分

    高级影迷

    Rank: 4

    积分
    174
    发表于 2021-4-1 10:33:17 | 显示全部楼层
    谢谢 下载收藏了
    回复

    使用道具 举报

    您需要登录后才可以回帖 登录 | 立即注册

    本版积分规则

    QQ|Archiver|手机版|小黑屋|影迷乐园

    GMT+8, 2021-4-15 07:05 , Processed in 0.067420 second(s), 27 queries .

    Powered by Discuz! X3.4

    Copyright © 2001-2020, Tencent Cloud.

    快速回复 返回顶部 返回列表