请选择 进入手机版 | 继续访问电脑版

YMLY-影迷乐园-特效字幕 蓝光原盘 1080P 高清动漫电影电视剧

 找回密码
 立即注册
搜索
查看: 171|回复: 11

[美国] [115+百度][2020][世界新闻][简.繁.英字幕][21.0GB][MKV][News.of.the.World.2020.UHD.2160p.x265.10bit.HDR.mUHD-FRDS]

[复制链接]
  • TA的每日心情
    奋斗
    2020-2-21 00:36
  • 签到天数: 656 天

    [LV.9]以坛为家II

    1万

    主题

    1万

    帖子

    9万

    积分

    超级版主

    与齐同行,是最初的梦想,也是一辈子的执着~

    Rank: 16Rank: 16Rank: 16Rank: 16

    积分
    93142

    内测勋章最佳新人十二生肖之猴VIP包月勋章影迷男神小土豪勋章土豪勋章富甲一方精华勋章金话筒主题达人灌水之王

    发表于 2021-4-1 00:20:47 | 显示全部楼层 |阅读模式
    下载说明:

    百度网盘分享极其不稳定,如有链接失效,请第一时间站内短消息通知我,上线后会第一时间补发!请大家多多谅解!电驴链接只能115会员离线下载,其它工具都下载不了!


    ----转载自FRDS,感谢压制和原发布人员,特此鸣谢!----





    ◎译  名 世界新闻 / 结叛同行(港) / 读报人(台)
    ◎片  名 News of the World
    ◎年  代 2020
    ◎产  地 美国
    ◎类  别 剧情 / 动作 / 西部 / 冒险
    ◎语  言 英语
    ◎上映日期 2020-12-25(美国)
    ◎IMDb评分  7.1/10 from 1202 users
    ◎IMDb链接  https://www.imdb.com/title/tt6878306
    ◎豆瓣评分 0/10 from 0 users
    ◎豆瓣链接 https://movie.douban.com/subject/27042738/
    ◎片  长 118分钟
    ◎导  演 保罗·格林格拉斯 Paul Greengrass
    ◎编  剧 保罗·格林格拉斯 Paul Greengrass / 卢克·戴维斯 Luke Davies / 波莱特·吉尔斯 Paulette Jiles
    ◎主  演 汤姆·汉克斯 Tom Hanks
           海伦娜·泽格尔 Helena Zengel
           伊丽莎白·玛维尔 Elizabeth Marvel
           雷·迈克金农 Ray McKinnon
           梅尔·温宁汉姆 Mare Winningham
           尼尔·桑迪兰兹 Neil Sandilands
           楚克武迪·武吉 Chukwudi Iwuji
           托马斯·弗兰西斯·墨菲 Thomas Francis Murphy
           米歇尔·坎贝尔 Michelle Campbell
           弗莱德·赫钦格 Fred Hechinger
           迈克尔·安盖洛·科维诺 Michael Angelo Covino
           斯塔福德·道格拉斯 Stafford Douglas
           J·内森·西蒙斯 J. Nathan Simmons
           斯蒂芬妮·希尔 Stephanie Hill
           布兰登·韦德纳 Brenden Wedner
           汤姆·阿斯特 Tom Astor
           安迪·卡斯特利奇 Andy Kastelic
           克林特·奥本钦 Clint Obenchain


    ◎标  签 美国 | 2020 | 剧情 | 小说改编 | 改编 | 西部 | 动作 | 西部片

    ◎简  介  

      美国内战结束后五年,三场战争的退伍军官杰佛森凯尔基得上尉(汤姆·汉克斯 饰),现在以读报人的身份从一个小镇到另一个小镇,和当地居民分享世界各地的精彩新闻。他在德州的平原遇到乔韩娜(海伦娜·泽格尔 饰),一 个六年前被凯奥瓦印第安人掳走并被收养的十岁女孩。乔韩娜对她未曾体验过的世界充满敌意,而且被迫被送回她的阿姨和姨丈身边。基得上尉答应护送这女孩回到她依照法律应该属于的地方。他们必须在环境严苛的野外跋山涉水好几百英哩,而且这两人在寻找一个他们都可以称为家园的地方时,将面对来自人类和大自然的巨大挑战。该片根据波莱特·吉尔斯同名小说改编。

    ◎获奖情况  

      第33届芝加哥影评人协会奖(2020)
      最具潜力演员(提名) 海伦娜·泽格尔

    1. General
    2. Unique ID                                : 70267559337171288489327133871035237301 (0x34DD0A27765790D30FF15982A611C3B5)
    3. Complete name                            : News.of.the.World.2020.UHD.2160p.x265.10bit.HDR.mUHD-FRDS.mkv
    4. Format                                   : Matroska
    5. Format version                           : Version 4
    6. File size                                : 21.0 GiB
    7. Duration                                 : 1 h 58 min
    8. Overall bit rate mode                    : Variable
    9. Overall bit rate                         : 25.4 Mb/s
    10. Encoded date                             : UTC 2021-03-22 14:31:52
    11. Writing application                      : mkvmerge v53.0.0 (‘Fool‘s Gold‘) 64-bit
    12. Writing library                          : libebml v1.4.1 + libmatroska v1.6.2

    13. Video
    14. ID                                       : 1
    15. Format                                   : HEVC
    16. Format/Info                              : High Efficiency Video Coding
    17. Format profile                           : Main 10@L5.1@High
    18. HDR format                               : SMPTE ST 2086, HDR10 compatible
    19. Codec ID                                 : V_MPEGH/ISO/HEVC
    20. Duration                                 : 1 h 58 min
    21. Bit rate                                 : 21.0 Mb/s
    22. Width                                    : 3 840 pixels
    23. Height                                   : 1 608 pixels
    24. Display aspect ratio                     : 2.40:1
    25. Frame rate mode                          : Constant
    26. Frame rate                               : 23.976 (24000/1001) FPS
    27. Color space                              : YUV
    28. Chroma subsampling                       : 4:2:0
    29. Bit depth                                : 10 bits
    30. Bits/(Pixel*Frame)                       : 0.142
    31. Stream size                              : 17.4 GiB (83%)
    32. Writing library                          : x265 3.3+3-g8f8e332f1+29:[Windows][#Erg`Djh#][@Yuuki] made by @Dongfangbubai
    33. Encoding settings                        : rc=crf / crf=19.0000 / qcomp=0.70 / qpstep=4 / stats-write=0 / stats-read=0 / vbv-maxrate=160000 / vbv-bufsize=160000 / vbv-init=0.9 / crf-max=0.0 / crf-min=0.0 / no-lossless / no-cu-lossless / aq-mode=3 / aq-strength=0.80 / cbqpoffs=-3 / crqpoffs=-3 / ipratio=1.40 / pbratio=1.30 / psy-rd=2.00 / psy-rdoq=3.00 / deblock=-1:-1 / ref=5 / limit-refs=0 / no-limit-modes / bframes=8 / b-adapt=2 / bframe-bias=0 / b-pyramid / b-intra / weightp / weightb / min-keyint=23 / max-keyint=240 / rc-lookahead=60 / gop-lookahead=0 / scenecut=40 / hist-scenecut=0 / radl=0 / max-cu-size=32 / min-cu-size=8 / me=3 / subme=4 / merange=25 / rdoq-level=2 / rd=4 / rdpenalty=1 / dynamic-rd=0.00 / no-rd-refine / ----- / no-cutree / no-sao / no-rect / no-amp / no-open-gop / wpp / pmode / pme / no-psnr / no-ssim / nr-intra=0 / nr-inter=0 / no-constrained-intra / no-strong-intra-smoothing / max-tu-size=32 / tu-inter-depth=2 / tu-intra-depth=2 / limit-tu=0 / qg-size=32 / qpmax=69 / qpmin=0 / ----- / cpuid=1176575 / frame-threads=6 / numa-pools=54,- / log-level=2 / input-csp=1 / input-res=3840x1608 / interlace=0 / level-idc=0 / high-tier=1 / uhd-bd=0 / no-allow-non-conformance / repeat-headers / no-aud / hrd / info / hash=0 / no-temporal-layers / lookahead-slices=0 / no-splice / no-intra-refresh / no-ssim-rd / signhide / no-tskip / max-merge=3 / temporal-mvp / no-frame-dup / no-hme / no-analyze-src-pics / no-sao-non-deblock / selective-sao=0 / no-early-skip / no-rskip / no-fast-intra / no-tskip-fast / no-splitrd-skip / zone-count=0 / no-strict-cbr / no-rc-grain / no-const-vbv / sar=0 / overscan=0 / videoformat=5 / range=0 / colorprim=9 / transfer=16 / colormatrix=9 / chromaloc=0 / display-window=0 / master-display=G(13250,34500)B(7500,3000)R(34000,16000)WP(15635,16450)L(10000000,50) / cll=1000,184 / min-luma=0 / max-luma=1023 / log2-max-poc-lsb=8 / vui-timing-info / vui-hrd-info / slices=1 / no-opt-qp-pps / no-opt-ref-list-length-pps / no-multi-pass-opt-rps / scenecut-bias=0.05 / hist-threshold=0.01 / no-opt-cu-delta-qp / no-aq-motion / hdr10 / hdr10-opt / no-dhdr10-opt / no-idr-recovery-sei / analysis-reuse-level=0 / analysis-save-reuse-level=0 / analysis-load-reuse-level=0 / scale-factor=0 / refine-intra=0 / refine-inter=0 / refine-mv=1 / refine-ctu-distortion=0 / no-limit-sao / ctu-info=0 / no-lowpass-dct / refine-analysis-type=0 / copy-pic=1 / max-ausize-factor=1.0 / no-dynamic-refine / no-single-sei / no-hevc-aq / no-svt / no-field / qp-adaptation-range=1.00 / no-scenecut-aware-qpconformance-window-offsets / right=0 / bottom=0
    34. Default                                  : Yes
    35. Forced                                   : No
    36. Color range                              : Limited
    37. Color primaries                          : BT.2020
    38. Transfer characteristics                 : PQ
    39. Matrix coefficients                      : BT.2020 non-constant
    40. Mastering display color primaries        : Display P3
    41. Mastering display luminance              : min: 0.0050 cd/m2, max: 1000 cd/m2
    42. Maximum Content Light Level              : 1000 cd/m2
    43. Maximum Frame-Average Light Level        : 184 cd/m2

    44. Audio
    45. ID                                       : 2
    46. Format                                   : MLP FBA 16-ch
    47. Format/Info                              : Meridian Lossless Packing FBA with 16-channel presentation
    48. Commercial name                          : Dolby TrueHD with Dolby Atmos
    49. Codec ID                                 : A_TRUEHD
    50. Duration                                 : 1 h 58 min
    51. Bit rate mode                            : Variable
    52. Bit rate                                 : 4 292 kb/s
    53. Maximum bit rate                         : 8 112 kb/s
    54. Channel(s)                               : 8 channels
    55. Channel layout                           : L R C LFE Ls Rs Lb Rb
    56. Sampling rate                            : 48.0 kHz
    57. Frame rate                               : 1 200.000 FPS (40 SPF)
    58. Compression mode                         : Lossless
    59. Stream size                              : 3.55 GiB (17%)
    60. Title                                    : 英语
    61. Language                                 : English
    62. Default                                  : Yes
    63. Forced                                   : No
    64. Number of dynamic objects                : 11
    65. Bed channel count                        : 1 channel
    66. Bed channel configuration                : LFE

    67. Text #1
    68. ID                                       : 3
    69. Format                                   : PGS
    70. Muxing mode                              : zlib
    71. Codec ID                                 : S_HDMV/PGS
    72. Codec ID/Info                            : Picture based subtitle format used on BDs/HD-DVDs
    73. Duration                                 : 1 h 52 min
    74. Bit rate                                 : 26.1 kb/s
    75. Count of elements                        : 2352
    76. Stream size                              : 20.9 MiB (0%)
    77. Title                                    : 英文
    78. Language                                 : English
    79. Default                                  : Yes
    80. Forced                                   : No

    81. Text #2
    82. ID                                       : 4
    83. Format                                   : PGS
    84. Muxing mode                              : zlib
    85. Codec ID                                 : S_HDMV/PGS
    86. Codec ID/Info                            : Picture based subtitle format used on BDs/HD-DVDs
    87. Duration                                 : 1 h 52 min
    88. Bit rate                                 : 16.0 kb/s
    89. Count of elements                        : 1879
    90. Stream size                              : 12.9 MiB (0%)
    91. Title                                    : 简中
    92. Language                                 : Chinese
    93. Default                                  : No
    94. Forced                                   : No

    95. Text #3
    96. ID                                       : 5
    97. Format                                   : PGS
    98. Muxing mode                              : zlib
    99. Codec ID                                 : S_HDMV/PGS
    100. Codec ID/Info                            : Picture based subtitle format used on BDs/HD-DVDs
    101. Duration                                 : 1 h 52 min
    102. Bit rate                                 : 15.3 kb/s
    103. Count of elements                        : 1936
    104. Stream size                              : 12.4 MiB (0%)
    105. Title                                    : 繁中
    106. Language                                 : Chinese
    107. Default                                  : No
    108. Forced                                   : No
    复制代码







    购买主题 已有 5 人购买  本主题需向作者支付 10 大洋 才能浏览
    郑重声明:
    本人提供的所有影视作品均是在网上搜集,任何涉及商业盈利目的均不得使用,否则产生的一切后果将由您自己承担!
    本人不对本人所发布的任何内容负任何法律责任!该下载内容仅做宽带测试使用,请在下载后24小时内删除。请购买正版!
    本人列出的文件没有保存在本站的服务器上,本人仅负责连接,本人对被传播文件的内容一无所知。
    如侵犯视频原作者或发行商版权,请联系本人删除!
    回复

    使用道具 举报

  • TA的每日心情
    开心
    2020-12-17 13:37
  • 签到天数: 236 天

    [LV.7]常住居民III

    11

    主题

    2602

    帖子

    942

    积分

    ★★VIP6★★

    Rank: 22Rank: 22Rank: 22Rank: 22Rank: 22Rank: 22

    积分
    942

    小土豪勋章土豪勋章影迷男神十二生肖之猴天秤座勋章

    发表于 2021-4-1 09:05:48 | 显示全部楼层
    感谢分享。
    1
    回复

    使用道具 举报

  • TA的每日心情
    开心
    昨天 09:33
  • 签到天数: 637 天

    [LV.9]以坛为家II

    0

    主题

    1037

    帖子

    357

    积分

    超级影迷

    Rank: 6Rank: 6

    积分
    357

    小土豪勋章

    发表于 2021-4-1 09:19:00 | 显示全部楼层
    感谢分享!!!
    回复

    使用道具 举报

  • TA的每日心情
    奋斗
    昨天 13:42
  • 签到天数: 107 天

    [LV.6]常住居民II

    0

    主题

    179

    帖子

    134

    积分

    中级影迷

    Rank: 3Rank: 3

    积分
    134
    发表于 2021-4-1 10:51:45 | 显示全部楼层
    感谢楼主分享
    回复

    使用道具 举报

  • TA的每日心情
    开心
    昨天 09:51
  • 签到天数: 139 天

    [LV.7]常住居民III

    3

    主题

    300

    帖子

    239

    积分

    高级影迷

    Rank: 4

    积分
    239

    小土豪勋章

    发表于 2021-4-1 11:21:01 | 显示全部楼层
    下载收藏了,有空再看
    回复

    使用道具 举报

  • TA的每日心情
    慵懒
    2021-3-24 20:44
  • 签到天数: 30 天

    [LV.5]常住居民I

    43

    主题

    3032

    帖子

    203

    积分

    ★★VIP6★★

    Rank: 22Rank: 22Rank: 22Rank: 22Rank: 22Rank: 22

    积分
    203
    发表于 2021-4-1 13:59:33 | 显示全部楼层
    ainimemeda
    回复

    使用道具 举报

    该用户从未签到

    3

    主题

    942

    帖子

    101

    积分

    中级影迷

    Rank: 3Rank: 3

    积分
    101
    发表于 2021-4-1 19:57:33 | 显示全部楼层
    66666666666666666666666
    回复

    使用道具 举报

    该用户从未签到

    3

    主题

    942

    帖子

    101

    积分

    中级影迷

    Rank: 3Rank: 3

    积分
    101
    发表于 2021-4-1 19:57:33 | 显示全部楼层
    66666666666666666666666
    回复

    使用道具 举报

  • TA的每日心情
    开心
    1 分钟前
  • 签到天数: 410 天

    [LV.9]以坛为家II

    1

    主题

    926

    帖子

    195

    积分

    高级影迷

    Rank: 4

    积分
    195
    发表于 2021-4-1 22:10:06 | 显示全部楼层
    也不知道看没看过,那就再看一遍
    回复

    使用道具 举报

  • TA的每日心情
    开心
    1 小时前
  • 签到天数: 60 天

    [LV.6]常住居民II

    0

    主题

    955

    帖子

    111

    积分

    中级影迷

    Rank: 3Rank: 3

    积分
    111
    发表于 2021-4-1 23:06:34 | 显示全部楼层
    电影不错,感谢楼主分享
    回复

    使用道具 举报

    您需要登录后才可以回帖 登录 | 立即注册

    本版积分规则

    QQ|Archiver|手机版|小黑屋|影迷乐园

    GMT+8, 2021-4-15 07:52 , Processed in 0.069288 second(s), 27 queries .

    Powered by Discuz! X3.4

    Copyright © 2001-2020, Tencent Cloud.

    快速回复 返回顶部 返回列表