请选择 进入手机版 | 继续访问电脑版

YMLY-影迷乐园-特效字幕 蓝光原盘 1080P 高清动漫电影电视剧

 找回密码
 立即注册
搜索
查看: 164|回复: 10

[美国] [115][1990][异形魔怪][简中.中英字幕][23.48GB][MKV][Tremors.1990.UHD.2160p.x265.10bit.HDR.mUHD-FRDS]

[复制链接]
  • TA的每日心情
    奋斗
    2020-2-21 00:36
  • 签到天数: 656 天

    [LV.9]以坛为家II

    9985

    主题

    1万

    帖子

    9万

    积分

    超级版主

    与齐同行,是最初的梦想,也是一辈子的执着~

    Rank: 16Rank: 16Rank: 16Rank: 16

    积分
    91965

    内测勋章最佳新人十二生肖之猴VIP包月勋章影迷男神小土豪勋章土豪勋章富甲一方精华勋章金话筒主题达人灌水之王

    发表于 2021-4-1 01:09:34 | 显示全部楼层 |阅读模式
    下载说明:

    只能115会员离线下载,其它工具都下载不了,购买前请看清楚,一经出售,一概不退款!


    ----转载自FRDS,感谢压制和原发布人员,特此鸣谢!----


    制作说明:

    简中和双语字幕来自字幕库;
    Encode:洞房不败






    ◎译  名 异形魔怪 / 从地心窜出 / 来自地底深处 / 深渊异形 / 震颤
    ◎片  名 Tremors
    ◎年  代 1990
    ◎产  地 美国
    ◎类  别 喜剧 / 恐怖
    ◎语  言 英语
    ◎上映日期 1990-01-19(美国)
    ◎IMDb评分  7.1/10 from 118785 users
    ◎IMDb链接  https://www.imdb.com/title/tt0100814
    ◎豆瓣评分 7.1/10 from 8905 users
    ◎豆瓣链接 https://movie.douban.com/subject/1292599/
    ◎片  长 96 分钟
    ◎导  演 罗恩·安德伍德 Ron Underwood
    ◎编  剧 布伦特·马多克 Brent Maddock / 罗恩·安德伍德 Ron Underwood / S·S·威尔逊 S.S. Wilson
    ◎主  演 凯文·贝肯 Kevin Bacon
           弗莱德·沃德 Fred Ward
           Finn Carter
           迈克尔·格罗斯 Michael Gross
           瑞芭·麦肯泰尔 Reba McEntire
           罗伯特·詹 Robert Jayne
           夏洛特·斯图尔特 Charlotte Stewart
           托尼·吉纳罗 Tony Genaro
           阿丽亚娜·理查兹 Ariana Richards
           黄自强 Victor Wong
           Sunshine Parker
           康拉德·巴赫曼 Conrad Bachmann
           比比·贝什 Bibi Besch
           汤姆·伍德鲁夫 Tom Woodruff Jr.


    ◎标  签 美国 | 怪物 | 恐怖 | 科幻 | 惊悚 | 喜剧 | 1990 | 美国电影

    ◎简  介  

      在一个名为“完美”的宁静小镇上,米奇(凯文·贝肯 Kevin Bacon 饰)和死党巴斯特(弗莱德·沃德 Fred Ward 饰)又度过了属于他们的平静一天。对于在这个无趣的小镇里从事着一份又一份没有前途,仅能糊口的工作这一事实,两个血气方刚的年轻人感到十分无奈和困扰。终于,他们决定要走出完美镇,开始他们多姿多彩的新生活,而就在此时,通向镇外的唯一一条公路莫名塌陷了,某些不详的征兆开始显现。早在数星期之前,镇上发生了家畜神秘失踪的恐怖事件,同时,地质系学生蕾贝卡( 芬妮·卡特 Finn Carter 饰)发现小镇的地壳运动十分异常。现在,众人终于将这些纷乱的线索拼凑到了一起,在大家的脚下,黑不见光的地底,究竟是什么在蠢蠢欲动?

    1. General
    2. Unique ID                      : 146214293686557485174699999363781112837 (0x6DFFD9412E66E85A77CBEE8535443405)
    3. Format                         : Matroska
    4. Format version                 : Version 4
    5. File size                      : 23.5 GiB
    6. Duration                       : 1 h 36 min
    7. Overall bit rate mode          : Variable
    8. Overall bit rate               : 35.0 Mb/s
    9. Encoded date                   : UTC 2021-03-12 14:07:03
    10. Writing application            : mkvmerge v53.0.0 ('Fool's Gold') 64-bit
    11. Writing library                : libebml v1.4.1 + libmatroska v1.6.2

    12. Video
    13. ID                             : 1
    14. Format                         : HEVC
    15. Format/Info                    : High Efficiency Video Coding
    16. Format profile                 : Main 10@L5.1@High
    17. HDR format                     : SMPTE ST 2086, HDR10 compatible
    18. Codec ID                       : V_MPEGH/ISO/HEVC
    19. Duration                       : 1 h 36 min
    20. Bit rate                       : 31.3 Mb/s
    21. Width                          : 3 840 pixels
    22. Height                         : 2 076 pixels
    23. Display aspect ratio           : 1.85:1
    24. Frame rate mode                : Constant
    25. Frame rate                     : 23.976 (24000/1001) FPS
    26. Color space                    : YUV
    27. Chroma subsampling             : 4:2:0
    28. Bit depth                      : 10 bits
    29. Bits/(Pixel*Frame)             : 0.164
    30. Stream size                    : 21.0 GiB (89%)
    31. Writing library                : x265 3.3+3-g8f8e332f1+29:[Windows][#Erg`Djh#][@Yuuki] made by @Dongfangbubai
    32. Encoding settings              : rc=crf / crf=21.0000 / qcomp=0.70 / qpstep=4 / stats-write=0 / stats-read=0 / vbv-maxrate=160000 / vbv-bufsize=160000 / vbv-init=0.9 / crf-max=0.0 / crf-min=0.0 / no-lossless / no-cu-lossless / aq-mode=3 / aq-strength=0.80 / cbqpoffs=-3 / crqpoffs=-3 / ipratio=1.40 / pbratio=1.30 / psy-rd=2.00 / psy-rdoq=3.00 / deblock=-1:-1 / ref=5 / limit-refs=0 / no-limit-modes / bframes=8 / b-adapt=2 / bframe-bias=0 / b-pyramid / b-intra / weightp / weightb / min-keyint=23 / max-keyint=240 / rc-lookahead=60 / gop-lookahead=0 / scenecut=40 / hist-scenecut=0 / radl=0 / max-cu-size=32 / min-cu-size=8 / me=3 / subme=4 / merange=25 / rdoq-level=2 / rd=4 / rdpenalty=1 / dynamic-rd=0.00 / no-rd-refine / ----- / no-cutree / no-sao / no-rect / no-amp / no-open-gop / wpp / pmode / pme / no-psnr / no-ssim / nr-intra=0 / nr-inter=0 / no-constrained-intra / no-strong-intra-smoothing / max-tu-size=32 / tu-inter-depth=2 / tu-intra-depth=2 / limit-tu=0 / qg-size=32 / qpmax=69 / qpmin=0 / ----- / cpuid=1176575 / frame-threads=6 / numa-pools=54,- / log-level=2 / input-csp=1 / input-res=3840x2076 / interlace=0 / level-idc=0 / high-tier=1 / uhd-bd=0 / no-allow-non-conformance / no-repeat-headers / no-aud / hrd / info / hash=0 / no-temporal-layers / lookahead-slices=0 / no-splice / no-intra-refresh / no-ssim-rd / signhide / no-tskip / max-merge=3 / temporal-mvp / no-frame-dup / no-hme / no-analyze-src-pics / no-sao-non-deblock / selective-sao=0 / no-early-skip / no-rskip / no-fast-intra / no-tskip-fast / no-splitrd-skip / zone-count=0 / no-strict-cbr / no-rc-grain / no-const-vbv / sar=0 / overscan=0 / videoformat=5 / range=0 / colorprim=9 / transfer=16 / colormatrix=9 / chromaloc=0 / display-window=0 / master-display=G(13250,34500)B(7500,3000)R(34000,16000)WP(15635,16450)L(10000000,1) / cll=0,0 / min-luma=0 / max-luma=1023 / log2-max-poc-lsb=8 / vui-timing-info / vui-hrd-info / slices=1 / no-opt-qp-pps / no-opt-ref-list-length-pps / no-multi-pass-opt-rps / scenecut-bias=0.05 / hist-threshold=0.01 / no-opt-cu-delta-qp / no-aq-motion / hdr10 / hdr10-opt / no-dhdr10-opt / no-idr-recovery-sei / analysis-reuse-level=0 / analysis-save-reuse-level=0 / analysis-load-reuse-level=0 / scale-factor=0 / refine-intra=0 / refine-inter=0 / refine-mv=1 / refine-ctu-distortion=0 / no-limit-sao / ctu-info=0 / no-lowpass-dct / refine-analysis-type=0 / copy-pic=1 / max-ausize-factor=1.0 / no-dynamic-refine / no-single-sei / no-hevc-aq / no-svt / no-field / qp-adaptation-range=1.00 / no-scenecut-aware-qpconformance-window-offsets / right=0 / bottom=0
    33. Default                        : Yes
    34. Forced                         : No
    35. Color range                    : Limited
    36. Color primaries                : BT.2020
    37. Transfer characteristics       : PQ
    38. Matrix coefficients            : BT.2020 non-constant
    39. Mastering display color primar : Display P3
    40. Mastering display luminance    : min: 0.0001 cd/m2, max: 1000 cd/m2

    41. Audio
    42. ID                             : 2
    43. ID in the original source medi : 4354 (0x1102)
    44. Format                         : DTS XLL
    45. Format/Info                    : Digital Theater Systems
    46. Commercial name                : DTS-HD Master Audio
    47. Codec ID                       : A_DTS
    48. Duration                       : 1 h 36 min
    49. Bit rate mode                  : Variable
    50. Bit rate                       : 3 655 kb/s
    51. Channel(s)                     : 6 channels
    52. Channel layout                 : C L R Ls Rs LFE
    53. Sampling rate                  : 48.0 kHz
    54. Frame rate                     : 93.750 FPS (512 SPF)
    55. Bit depth                      : 24 bits
    56. Compression mode               : Lossless
    57. Stream size                    : 2.45 GiB (10%)
    58. Title                          : 英语
    59. Language                       : English
    60. Default                        : Yes
    61. Forced                         : No
    62. Original source medium         : Blu-ray

    63. Text #1
    64. ID                             : 3
    65. ID in the original source medi : 4768 (0x12A0)
    66. Format                         : PGS
    67. Muxing mode                    : zlib
    68. Codec ID                       : S_HDMV/PGS
    69. Codec ID/Info                  : Picture based subtitle format used on BDs/HD-DVDs
    70. Duration                       : 1 h 35 min
    71. Bit rate                       : 38.3 kb/s
    72. Count of elements              : 2582
    73. Stream size                    : 26.0 MiB (0%)
    74. Title                          : 英文
    75. Language                       : English
    76. Default                        : Yes
    77. Forced                         : No
    78. Original source medium         : Blu-ray

    79. Text #2
    80. ID                             : 4
    81. Format                         : PGS
    82. Muxing mode                    : zlib
    83. Codec ID                       : S_HDMV/PGS
    84. Codec ID/Info                  : Picture based subtitle format used on BDs/HD-DVDs
    85. Duration                       : 1 h 30 min
    86. Bit rate                       : 21.7 kb/s
    87. Count of elements              : 2024
    88. Stream size                    : 14.0 MiB (0%)
    89. Title                          : 简中
    90. Language                       : Chinese
    91. Default                        : No
    92. Forced                         : No

    93. Text #3
    94. ID                             : 5
    95. Format                         : PGS
    96. Muxing mode                    : zlib
    97. Codec ID                       : S_HDMV/PGS
    98. Codec ID/Info                  : Picture based subtitle format used on BDs/HD-DVDs
    99. Duration                       : 1 h 34 min
    100. Bit rate                       : 36.4 kb/s
    101. Count of elements              : 2107
    102. Stream size                    : 24.6 MiB (0%)
    103. Title                          : 简英
    104. Language                       : Chinese
    105. Default                        : No
    106. Forced                         : No

    107. Menu
    108. 00:00:00.000                   : en:Chapter 01
    109. 00:08:30.426                   : en:Chapter 02
    110. 00:15:49.907                   : en:Chapter 03
    111. 00:22:40.484                   : en:Chapter 04
    112. 00:31:33.725                   : en:Chapter 05
    113. 00:40:32.763                   : en:Chapter 06
    114. 00:47:52.244                   : en:Chapter 07
    115. 00:55:55.143                   : en:Chapter 08
    116. 01:01:35.233                   : en:Chapter 09
    117. 01:10:35.564                   : en:Chapter 10
    118. 01:21:12.242                   : en:Chapter 11
    119. 01:27:44.968                   : en:Chapter 12
    复制代码






    购买主题 已有 3 人购买  本主题需向作者支付 10 大洋 才能浏览
    郑重声明:
    本人提供的所有影视作品均是在网上搜集,任何涉及商业盈利目的均不得使用,否则产生的一切后果将由您自己承担!
    本人不对本人所发布的任何内容负任何法律责任!该下载内容仅做宽带测试使用,请在下载后24小时内删除。请购买正版!
    本人列出的文件没有保存在本站的服务器上,本人仅负责连接,本人对被传播文件的内容一无所知。
    如侵犯视频原作者或发行商版权,请联系本人删除!
    回复

    使用道具 举报

  • TA的每日心情
    开心
    2021-2-17 16:20
  • 签到天数: 1 天

    [LV.1]初来乍到

    0

    主题

    283

    帖子

    183

    积分

    高级影迷

    Rank: 4

    积分
    183
    发表于 2021-4-1 07:50:34 | 显示全部楼层
    感谢楼主分享
    回复

    使用道具 举报

  • TA的每日心情
    开心
    2020-12-17 13:37
  • 签到天数: 236 天

    [LV.7]常住居民III

    11

    主题

    2598

    帖子

    937

    积分

    ★★VIP6★★

    Rank: 22Rank: 22Rank: 22Rank: 22Rank: 22Rank: 22

    积分
    937

    小土豪勋章土豪勋章影迷男神十二生肖之猴天秤座勋章

    发表于 2021-4-1 09:07:06 | 显示全部楼层
    感谢分享,支持
    回复

    使用道具 举报

  • TA的每日心情
    开心
    昨天 09:34
  • 签到天数: 136 天

    [LV.7]常住居民III

    3

    主题

    294

    帖子

    232

    积分

    高级影迷

    Rank: 4

    积分
    232

    小土豪勋章

    发表于 2021-4-1 11:18:42 | 显示全部楼层
    下载收藏!!!!
    回复

    使用道具 举报

    该用户从未签到

    3

    主题

    940

    帖子

    101

    积分

    中级影迷

    Rank: 3Rank: 3

    积分
    101
    发表于 2021-4-1 18:13:17 | 显示全部楼层
    6666666666
    回复

    使用道具 举报

    该用户从未签到

    3

    主题

    940

    帖子

    101

    积分

    中级影迷

    Rank: 3Rank: 3

    积分
    101
    发表于 2021-4-1 18:13:17 | 显示全部楼层
    6666666666
    回复

    使用道具 举报

  • TA的每日心情
    开心
    4 小时前
  • 签到天数: 57 天

    [LV.5]常住居民I

    0

    主题

    947

    帖子

    110

    积分

    中级影迷

    Rank: 3Rank: 3

    积分
    110
    发表于 2021-4-1 23:06:15 | 显示全部楼层
    真是好资源啊~~~谢谢!
    回复

    使用道具 举报

  • TA的每日心情
    无聊
    5 小时前
  • 签到天数: 238 天

    [LV.7]常住居民III

    3

    主题

    2297

    帖子

    222

    积分

    高级影迷

    Rank: 4

    积分
    222
    发表于 2021-4-2 20:12:06 | 显示全部楼层
    感谢楼主分享
    回复

    使用道具 举报

  • TA的每日心情
    无聊
    13 小时前
  • 签到天数: 703 天

    [LV.9]以坛为家II

    39

    主题

    7979

    帖子

    1124

    积分

    资深影迷

    Rank: 10Rank: 10Rank: 10

    积分
    1124
    发表于 7 天前 | 显示全部楼层
    支持!感谢辛苦发布。
    回复

    使用道具 举报

  • TA的每日心情
    开心
    昨天 22:18
  • 签到天数: 124 天

    [LV.7]常住居民III

    1

    主题

    1222

    帖子

    114

    积分

    中级影迷

    Rank: 3Rank: 3

    积分
    114
    发表于 7 天前 | 显示全部楼层
    感谢楼主的分享
    回复

    使用道具 举报

    您需要登录后才可以回帖 登录 | 立即注册

    本版积分规则

    QQ|Archiver|手机版|小黑屋|影迷乐园

    GMT+8, 2021-4-12 14:02 , Processed in 0.065362 second(s), 27 queries .

    Powered by Discuz! X3.4

    Copyright © 2001-2020, Tencent Cloud.

    快速回复 返回顶部 返回列表