请选择 进入手机版 | 继续访问电脑版

YMLY-影迷乐园-特效字幕 蓝光原盘 1080P 高清动漫电影电视剧

 找回密码
 立即注册
搜索
查看: 120|回复: 7

[DTS] [百度][蝙蝠侠前传三部曲.Batman.Begins.2005.2008.2012.重混公映国语.DTS.5.1-16bit.48khz@1510kbps]

[复制链接]
  • TA的每日心情
    开心
    2021-4-4 01:32
  • 签到天数: 2 天

    [LV.1]初来乍到

    11

    主题

    316

    帖子

    39

    积分

    初级影迷

    Rank: 2

    积分
    39
    发表于 7 天前 | 显示全部楼层 |阅读模式
    百度网盘下载,如有失效请站内短消息通知我!

    重混音轨音质非常好,原出处已不明,版权归原作者所有,感谢辛苦制作!



    ◎片  名  Batman Begins
    ◎译  名  蝙蝠侠前传1:侠影之谜/蝙蝠侠:开战时刻(台)/蝙蝠侠-侠影之谜(港)
    ◎年  代  2005
    ◎国  家  美国/英国
    ◎类  型  动作/科幻/惊悚/犯罪
    ◎语  言  英语/乌尔都语/汉语普通话
    ◎iMDB评分  8.3/10 (824,831 votes)Top 250 #110
    ◎iMDB链接  http://www.imdb.com/title/tt0372784/
    ◎种子制作  村口老蔡
    ◎导  演  克里斯托弗·诺兰 Christopher Nolan
    ◎主  演  克里斯蒂安·贝尔 Christian Bale
           迈克尔·凯恩 Michael Caine
           连姆·尼森 Liam Neeson
           凯蒂·霍尔姆斯 Katie Holmes
           加里·奥德曼 Gary Oldman
           基里安·墨菲 Cillian Murphy
           汤姆·威尔金森 Tom Wilkinson
           摩根·弗里曼 Morgan Freeman
           渡边谦 Ken Watanabe


    ◎简  介

      布鲁斯 韦恩(克里斯汀·贝尔 Christian Bale 饰)童年亲眼目睹了父母在高谭市街头被歹徒枪杀,韦恩充满怒火。在继承了父亲亿万家产后,韦恩开始环游世界,希望凭自己的力量复仇和打击犯罪!
      韦恩为了了解罪犯的心理,在亚洲他亲自体现了犯罪的感觉,最后被捕入狱。他在狱中遇到了武艺高强的杜卡,杜卡传授了韦恩高强的武艺和坚韧的意志力。韦恩很快被神秘的影忍者盟看上,忍者大师一直想邀他加入。
      韦恩不久发现影忍者盟对自己的家乡高谭市另有企图,他毅然回到了故乡。韦恩在自己的庄园发现了一个地下室,从此他多了一个身份—蝙蝠侠。蝙蝠侠开始了对抗笼罩在高谭市的黑暗。

    音轨信息:

    Audio
    Format                         : DTS
    Format/Info                    : Digital Theater Systems
    Mode                           : 16
    Format settings, Endianness    : Big
    Duration                       : 2h 20mn
    Bit rate mode                  : Constant
    Bit rate                       : 1 510 Kbps
    Channel(s)                     : 6 channels
    Channel positions              : Front: L C R, Side: L R, LFE
    Sampling rate                  : 48.0 KHz
    Frame rate                     : 93.750 fps (512 spf)
    Bit depth                      : 24 bits
    Compression mode               : Lossy
    Stream size                    : 1.48 GiB (100%)



    ◎片  名  The Dark Knight
    ◎译  名  蝙蝠侠前传2:黑暗骑士/黑暗骑士(台)/蝙蝠侠-黑夜之神(港)
    ◎年  代  2008
    ◎国  家  美国/英国
    ◎类  型  动作/科幻/惊悚/犯罪
    ◎语  言  英语/汉语普通话
    ◎iMDB评分  9.0/10 (1,432,853 votes)Top 250 #4
    ◎iMDB链接  http://www.imdb.com/title/tt0468569/
    ◎种子制作  村口老蔡
    ◎导  演  克里斯托弗·诺兰 Christopher Nolan
    ◎主  演  克里斯蒂安·贝尔 Christian Bale
           希斯·莱杰 Heath Ledger
           艾伦·艾克哈特 Aaron Eckhart
           迈克尔·凯恩 Michael Caine
           玛吉·吉伦哈尔 Maggie Gyllenhaal
           加里·奥德曼 Gary Oldman
           摩根·弗里曼 Morgan Freeman
           基里安·墨菲 Cillian Murphy
           黄经汉 Chin Han
           陈冠希 Edison Chen
           内斯特·卡博内尔 Nestor Carbonell
           埃里克·罗伯茨 Eric Roberts
           威廉·菲德内尔 William Fichtner


    ◎简  介

      从亲眼目睹父母被人杀死的阴影中走出来的“蝙蝠侠”,经历了成长之后,已经不再是那个桀骜不的孤单英雄了。在警官吉姆·戈登和检查官哈维·登特的通力帮助下,“蝙蝠侠”无后顾之忧地继续满世界的奔波,与日益增长起来的犯罪威胁做着永无休止的争斗,而他所在的高谭市,也是进展最为明显的地方,犯罪率以一种惊人的速度持续下降着,毕竟对方是能够上天入地的“蝙蝠侠”,不借两个胆子谁还敢造次呢?不过像高谭这种科技与污秽并存的城市,平静是不可能维持太久的,果不其然,新一轮的混乱很快就席卷了整个城市,人们再一被被恐慌所笼罩着,而声称愿意为这一切负责的,自然就是所有混乱的源头以及支配者--“小丑”了。
      先不管“小丑”掀起一个又一个犯罪的狂潮的最终目的为何,他的企图都是邪恶的,所作所为更是早就危害到了高谭市民的正常生活……其中自然包括了“蝙蝠侠”身边几个非常重要的人,而他需要做的,就是将这股新的危机全部亲自用手捏得粉碎。然而在面对着这个有史以来最具针对性、最恶毒的对手时,“蝙蝠侠”却不得不从他的地下军械库里搬出每一件能够用得上的高科技武器,还得时刻纠结着为他曾经信仰的一切寻找答案。

    音轨信息:

    Format                         : DTS
    Format/Info                    : Digital Theater Systems
    Mode                           : 16
    Format settings, Endianness    : Big
    Duration                       : 2h 32mn
    Bit rate mode                  : Constant
    Bit rate                       : 1 510 Kbps
    Channel(s)                     : 6 channels
    Channel positions              : Front: L C R, Side: L R, LFE
    Sampling rate                  : 48.0 KHz
    Frame rate                     : 93.750 fps (512 spf)
    Bit depth                      : 24 bits
    Compression mode               : Lossy
    Stream size                    : 1.61 GiB (100%)



    ◎片  名  The Dark Knight Rises
    ◎译  名  蝙蝠侠前传3:黑暗骑士崛起/黑暗骑士:黎明升起(台)/蝙蝠侠-夜神起义(港)
    ◎年  代  2012
    ◎国  家  美国/英国
    ◎类  型  动作/科幻/惊悚/犯罪
    ◎语  言  英语
    ◎iMDB评分  8.5/10 (967,794 votes)Top 250 #61
    ◎iMDB链接  http://www.imdb.com/title/tt1345836/
    ◎种子制作  村口老蔡
    ◎导  演  克里斯托弗·诺兰 Christopher Nolan
    ◎主  演  克里斯蒂安·贝尔 Christian Bale
           汤姆·哈迪 Tom Hardy
           安妮·海瑟薇 Anne Hathaway
           约瑟夫·高登-莱维特 Joseph Gordon-Levitt
           玛丽昂·歌迪亚 Marion Cotillard
           加里·奥德曼 Gary Oldman
           迈克尔·凯恩 Michael Caine
           摩根·弗里曼 Morgan Freeman
           朱诺·坦普尔 Juno Temple
           乔什·平茨 Josh Pence
           丹尼尔·逊亚塔 Daniel Sunjata
           内斯特·卡博内尔 Nestor Carbonell
           连姆·尼森 Liam Neeson
           乔什·斯图沃特 Josh Stewart


    ◎简  介

      检察官哈维·登特(艾伦·艾克哈特 Aaron Eckhart 饰)死后的八年间,哥谭市在戈登警长(加里·奥德曼 Gary Oldman 饰)的努力下有效地遏制了犯罪活动。而蝙蝠侠布鲁斯·韦恩(克里斯蒂安·贝尔 Christian Bale 饰)因为背负谋杀登特的罪名,被 警方通缉,在哥谭市销声匿迹。然而,这看似平静的状态被恐怖分子贝恩(汤姆·哈迪 Tom Hardy 饰)的出现打破,他利用猫女(安妮·海瑟薇 Anne Hathaway 饰)偷取布鲁斯的指纹,致使韦恩集团面临破财,布鲁斯被赶出董事会。为了保证韦恩集团投资的能源项目不被坏人利用制造核弹,布鲁斯帮助米兰达(玛丽昂·歌迪亚 Marion Cotillard 饰)成为董事会主席。贝恩接下来一连串精密设计的计划将哥谭市陷入孤绝之境,毁灭之日指日可待。布鲁斯只能再次肩负起拯救哥谭的重任,然而至亲的管家阿福辞职离开、猫女的背叛、贝恩的凶残手段,爱人米拉达的真实面目露出,都让他拯救哥谭的行动变得不可能……

    音轨信息:

    Format                         : DTS
    Format/Info                    : Digital Theater Systems
    Mode                           : 16
    Format settings, Endianness    : Big
    Duration                       : 2h 44mn
    Bit rate mode                  : Constant
    Bit rate                       : 1 509 Kbps
    Channel(s)                     : 6 channels
    Channel positions              : Front: L C R, Side: L R, LFE
    Sampling rate                  : 48.0 KHz
    Frame rate                     : 93.750 fps (512 spf)
    Bit depth                      : 16 bits
    Compression mode               : Lossy
    Stream size                    : 1.73 GiB (100%)

    链接: https://pan.baidu.com/s/1FUSuioJ8VxoC6vhp1B7Dqg
    购买主题 已有 1 人购买  本主题需向作者支付 50 大洋 才能浏览
    回复

    使用道具 举报

  • TA的每日心情
    开心
    6 小时前
  • 签到天数: 58 天

    [LV.5]常住居民I

    6

    主题

    387

    帖子

    102

    积分

    中级影迷

    Rank: 3Rank: 3

    积分
    102
    发表于 7 天前 | 显示全部楼层
    非常棒的资源
    回复

    使用道具 举报

  • TA的每日心情
    开心
    昨天 09:15
  • 签到天数: 29 天

    [LV.4]偶尔看看III

    0

    主题

    345

    帖子

    35

    积分

    初级影迷

    Rank: 2

    积分
    35
    QQ
    发表于 7 天前 | 显示全部楼层
    感谢分享,三部曲都非常精彩。
    回复

    使用道具 举报

  • TA的每日心情
    郁闷
    昨天 14:47
  • 签到天数: 230 天

    [LV.7]常住居民III

    7

    主题

    2569

    帖子

    177

    积分

    高级影迷

    Rank: 4

    积分
    177
    发表于 7 天前 | 显示全部楼层
    感谢楼主分享
    回复

    使用道具 举报

  • TA的每日心情
    开心
    昨天 16:20
  • 签到天数: 667 天

    [LV.9]以坛为家II

    0

    主题

    936

    帖子

    320

    积分

    超级影迷

    Rank: 6Rank: 6

    积分
    320
    发表于 7 天前 | 显示全部楼层
    很优秀的音轨 !!
    回复

    使用道具 举报

  • TA的每日心情
    无聊
    昨天 20:01
  • 签到天数: 26 天

    [LV.4]偶尔看看III

    0

    主题

    325

    帖子

    54

    积分

    初级影迷

    Rank: 2

    积分
    54
    发表于 7 天前 | 显示全部楼层
    感谢楼主分享
    回复

    使用道具 举报

  • TA的每日心情
    开心
    昨天 08:40
  • 签到天数: 21 天

    [LV.4]偶尔看看III

    0

    主题

    342

    帖子

    20

    积分

    入门影迷

    Rank: 1

    积分
    20
    发表于 6 天前 | 显示全部楼层
    感谢分享。。。。。。
    回复

    使用道具 举报

  • TA的每日心情

    昨天 07:33
  • 签到天数: 68 天

    [LV.6]常住居民II

    10

    主题

    665

    帖子

    43

    积分

    初级影迷

    Rank: 2

    积分
    43
    发表于 6 天前 | 显示全部楼层
    支持一下不错
    回复

    使用道具 举报

    您需要登录后才可以回帖 登录 | 立即注册

    本版积分规则

    QQ|Archiver|手机版|小黑屋|影迷乐园

    GMT+8, 2021-4-15 06:44 , Processed in 0.078748 second(s), 28 queries .

    Powered by Discuz! X3.4

    Copyright © 2001-2020, Tencent Cloud.

    快速回复 返回顶部 返回列表