请选择 进入手机版 | 继续访问电脑版

YMLY-影迷乐园-特效字幕 蓝光原盘 1080P 高清动漫电影电视剧

 找回密码
 立即注册
搜索
查看: 302|回复: 34

[美国] [百度][1993][似是故人来][国英双语..中英字幕][11.4GB][MKV][Sommersby.1993.BluRay.1080p.x264.DD&DTS.2Audios]

[复制链接]
  • TA的每日心情
    奋斗
    4 小时前
  • 签到天数: 58 天

    [LV.5]常住居民I

    20

    主题

    135

    帖子

    122

    积分

    中级影迷

    Rank: 3Rank: 3

    积分
    122
    发表于 2021-9-10 12:40:21 | 显示全部楼层 |阅读模式
    似是故人来


    导演: 乔恩·阿米尔
    编剧: 尼古拉斯·迈耶 / 萨拉·科诺辰
    主演: 理查·基尔 / 朱迪·福斯特 / 比尔·普尔曼 / 詹姆斯·厄尔·琼斯
    类型: 剧情 / 爱情 / 悬疑
    制片国家/地区: 美国 / 法国
    语言: 英语
    上映日期: 1993-02-05
    片长: 114 分钟
    又名: 索墨斯比 / 男儿本色
    IMDb: tt0108185

    似是故人来的剧情简介 · · · · · ·

           7年前,杰克(理查•基尔 饰)丢下了自己已怀孕的妻子劳瑞(朱迪•福斯特 饰)参加了美国内战。7年来毫无音讯,劳瑞承担起照顾孩子照顾家庭的责任。7年后的某天,杰克突然出现了。而且这时候的杰克,已不再是粗鲁刻薄,简直像变了一个人似的。本来就是地主的他带着村民一起勤奋耕作,希望尽力提高大家的生活水平。

           可是劳瑞初感到这种幸福感不久,事情发生了变化。杰克被控告与一宗谋杀案有关,当局要拘捕杰克,沉默的杰克并没有反抗,他接受拘捕。事实上,这是假的杰克,他是真杰克的教师朋友,真正的杰克早已死去了。假杰克愿意承受罪名,是因为他要把杰克最美好的一面留在大家的心中……

    1. Format                         : Matroska
    2. Format version                 : Version 4
    3. File size                      : 11.4 GiB
    4. Duration                       : 1 h 53 min
    5. Overall bit rate               : 14.4 Mb/s
    6. Encoded date                   : UTC 2021-09-04 02:49:12
    7. Writing application            : mkvmerge v53.0.0 ('Fool's Gold') 64-bit
    8. Writing library                : libebml v1.4.1 + libmatroska v1.6.2

    9. Video
    10. ID                             : 1
    11. Format                         : AVC
    12. Format/Info                    : Advanced Video Codec
    13. Format profile                 : High@L4.1
    14. Format settings                : CABAC / 4 Ref Frames
    15. Format settings, CABAC         : Yes
    16. Format settings, ReFrames      : 4 frames
    17. Codec ID                       : V_MPEG4/ISO/AVC
    18. Duration                       : 1 h 53 min
    19. Bit rate                       : 12.7 Mb/s
    20. Width                          : 1 920 pixels
    21. Height                         : 820 pixels
    22. Display aspect ratio           : 2.35:1
    23. Frame rate mode                : Constant
    24. Frame rate                     : 23.976 (24000/1001) FPS
    25. Color space                    : YUV
    26. Chroma subsampling             : 4:2:0
    27. Bit depth                      : 8 bits
    28. Scan type                      : Progressive
    29. Bits/(Pixel*Frame)             : 0.338
    30. Stream size                    : 10.1 GiB (88%)
    31. Title                          : BluRay.1080p.x264
    32. Writing library                : x264 core 130 r2273 b3065e6
    33. Encoding settings              : cabac=1 / ref=4 / deblock=1:-2:-2 / analyse=0x3:0x113 / me=umh / subme=9 / psy=1 / psy_rd=1.00:0.15 / mixed_ref=1 / me_range=24 / chroma_me=1 / trellis=2 / 8x8dct=1 / cqm=0 / deadzone=21,11 / fast_pskip=1 / chroma_qp_offset=-3 / threads=6 / lookahead_threads=1 / sliced_threads=0 / nr=0 / decimate=1 / interlaced=0 / bluray_compat=0 / constrained_intra=0 / bframes=16 / b_pyramid=2 / b_adapt=2 / b_bias=0 / direct=1 / weightb=0 / open_gop=0 / weightp=2 / keyint=230 / keyint_min=23 / scenecut=40 / intra_refresh=0 / rc=crf / mbtree=0 / crf=18.0 / qcomp=0.60 / qpmin=0 / qpmax=69 / qpstep=4 / ip_ratio=1.40 / pb_ratio=1.30 / aq=1:1.00

    34. Audio #1
    35. ID                             : 2
    36. Format                         : AC-3
    37. Format/Info                    : Audio Coding 3
    38. Commercial name                : Dolby Digital
    39. Codec ID                       : A_AC3
    40. Duration                       : 1 h 53 min
    41. Bit rate mode                  : Constant
    42. Bit rate                       : 192 kb/s
    43. Channel(s)                     : 2 channels
    44. Channel layout                 : L R
    45. Sampling rate                  : 48.0 kHz
    46. Frame rate                     : 31.250 FPS (1536 SPF)
    47. Bit depth                      : 16 bits
    48. Compression mode               : Lossy
    49. Stream size                    : 156 MiB (1%)
    50. Title                          : 上译内参DD2.0

    51. Audio #2
    52. ID                             : 3
    53. Format                         : DTS
    54. Format/Info                    : Digital Theater Systems
    55. Codec ID                       : A_DTS
    56. Duration                       : 1 h 53 min
    57. Bit rate mode                  : Constant
    58. Bit rate                       : 1 509 kb/s
    59. Channel(s)                     : 6 channels
    60. Channel layout                 : C L R Ls Rs LFE
    61. Sampling rate                  : 48.0 kHz
    62. Frame rate                     : 93.750 FPS (512 SPF)
    63. Bit depth                      : 24 bits
    64. Compression mode               : Lossy
    65. Stream size                    : 1.20 GiB (10%)
    66. Title                          : 英语DTS5.1
    复制代码


    截图








    链接:https://pan.baidu.com/s/1mbl5jfffaA_hvcLxmEndHw

    购买主题 已有 5 人购买  本主题需向作者支付 10 大洋 才能浏览
    回复

    使用道具 举报

  • TA的每日心情
    开心
    12 小时前
  • 签到天数: 1011 天

    [LV.10]以坛为家III

    9

    主题

    1683

    帖子

    98

    积分

    中级影迷

    Rank: 3Rank: 3

    积分
    98
    发表于 2021-9-10 22:02:50 | 显示全部楼层
    哇哦,不明觉厉,对电影没什么了解,但是这些演员都是我的最爱。
    回复

    使用道具 举报

  • TA的每日心情
    擦汗
    3 小时前
  • 签到天数: 155 天

    [LV.7]常住居民III

    0

    主题

    922

    帖子

    319

    积分

    超级影迷

    Rank: 6Rank: 6

    积分
    319

    小土豪勋章

    发表于 2021-9-10 22:18:29 | 显示全部楼层
    感谢分享经典电影
    回复

    使用道具 举报

  • TA的每日心情
    擦汗
    12 小时前
  • 签到天数: 308 天

    [LV.8]以坛为家I

    16

    主题

    2637

    帖子

    1031

    积分

    资深影迷

    Rank: 10Rank: 10Rank: 10

    积分
    1031
    发表于 2021-9-10 23:46:29 | 显示全部楼层

    感谢楼主分享
    回复

    使用道具 举报

  • TA的每日心情
    开心
    12 小时前
  • 签到天数: 187 天

    [LV.7]常住居民III

    3

    主题

    2337

    帖子

    260

    积分

    超级影迷

    Rank: 6Rank: 6

    积分
    260
    发表于 2021-9-11 00:07:20 | 显示全部楼层
    感谢分享。。。。。。
    回复

    使用道具 举报

  • TA的每日心情
    慵懒
    12 小时前
  • 签到天数: 111 天

    [LV.6]常住居民II

    0

    主题

    1308

    帖子

    223

    积分

    高级影迷

    Rank: 4

    积分
    223
    发表于 2021-9-11 00:14:02 | 显示全部楼层
    感谢分享。。。。。。
    回复

    使用道具 举报

  • TA的每日心情

    12 小时前
  • 签到天数: 461 天

    [LV.9]以坛为家II

    4

    主题

    2880

    帖子

    176

    积分

    高级影迷

    Rank: 4

    积分
    176
    发表于 2021-9-11 00:15:14 | 显示全部楼层

    感谢分享。。。。。。
    回复

    使用道具 举报

  • TA的每日心情

    12 小时前
  • 签到天数: 328 天

    [LV.8]以坛为家I

    0

    主题

    605

    帖子

    151

    积分

    高级影迷

    Rank: 4

    积分
    151
    发表于 2021-9-11 01:07:07 | 显示全部楼层
    谢谢分享!
    回复

    使用道具 举报

  • TA的每日心情
    奋斗
    9 小时前
  • 签到天数: 131 天

    [LV.7]常住居民III

    0

    主题

    934

    帖子

    65

    积分

    初级影迷

    Rank: 2

    积分
    65
    发表于 2021-9-11 02:53:58 | 显示全部楼层
    感谢分享!
    回复

    使用道具 举报

  • TA的每日心情

    2021-6-29 15:09
  • 签到天数: 39 天

    [LV.5]常住居民I

    1

    主题

    859

    帖子

    69

    积分

    初级影迷

    Rank: 2

    积分
    69
    发表于 2021-9-11 03:40:48 | 显示全部楼层
    谢谢楼主分享
    回复

    使用道具 举报

    您需要登录后才可以回帖 登录 | 立即注册

    本版积分规则

    QQ|Archiver|手机版|小黑屋|影迷乐园

    GMT+8, 2021-9-28 12:26 , Processed in 0.072248 second(s), 28 queries .

    Powered by Discuz! X3.4

    Copyright © 2001-2020, Tencent Cloud.

    快速回复 返回顶部 返回列表