请选择 进入手机版 | 继续访问电脑版

YMLY-影迷乐园-特效字幕 蓝光原盘 1080P 高清动漫电影电视剧

 找回密码
 立即注册
搜索
查看: 246|回复: 26

[美国] [百度][2003][奔腾年代][国英双语.中英字幕][13GB][MKV][Seabiscuit.2003.BluRay.1080p.x264.DD&DTS.2Audios]

[复制链接]
  • TA的每日心情
    奋斗
    4 小时前
  • 签到天数: 58 天

    [LV.5]常住居民I

    20

    主题

    135

    帖子

    123

    积分

    中级影迷

    Rank: 3Rank: 3

    积分
    123
    发表于 2021-9-10 12:44:27 | 显示全部楼层 |阅读模式
    奔腾年代


    导演: 盖瑞·罗斯
    编剧: 盖瑞·罗斯 / 劳拉·希伦布兰德
    主演: 托比·马奎尔 / 杰夫·布里吉斯 / 克里斯·库珀 / 伊丽莎白·班克斯 / 威廉姆·H·梅西 / 更多...
    类型: 剧情 / 历史 / 运动
    官方网站: www.seabiscuitmovie.com
    制片国家/地区: 美国
    语言: 英语
    上映日期: 2003-07-25(美国)
    片长: 140分钟
    又名: 壮志奔腾(港) / 奔腾岁月
    IMDb: tt0329575

    奔腾年代的剧情简介 · · · · · ·

      大萧条时期,每个人都要守住一个梦想,以此来度过最黑暗的时光,生活失意的汽车制造商查尔斯•霍华德(杰夫•布里吉斯 Jeff Bridges 饰)也不例外。他买了一匹小个子赛马,名为“海饼干”,并笼络了一批同样有梦想的人,意图进入赛马圈。
      第一个发现海饼干天赋的是训练师 汤姆•史密斯(克里斯•库珀 Chris Cooper 饰),他认为这匹马虽然个头矮小,腿脚也不太灵光,天性中却藏着十足的执拗和倔强,这有可能使其成为赛马圈的王者。他们找来前拳击冠军瑞德•波拉德(托比•马奎尔 Tobey Maguire饰)作为海饼干的骑师,三个人一匹马在共同的征程中重新找到了生活的方向。

    1. Format                         : Matroska
    2. Format version                 : Version 4
    3. File size                      : 13.1 GiB
    4. Duration                       : 2 h 20 min
    5. Overall bit rate               : 13.3 Mb/s
    6. Encoded date                   : UTC 2021-09-04 03:15:49

    7. Video
    8. ID                             : 1
    9. Format                         : AVC
    10. Format/Info                    : Advanced Video Codec
    11. Format profile                 : High@L4.1
    12. Format settings                : CABAC / 5 Ref Frames
    13. Format settings, CABAC         : Yes
    14. Format settings, ReFrames      : 5 frames
    15. Codec ID                       : V_MPEG4/ISO/AVC
    16. Duration                       : 2 h 20 min
    17. Bit rate                       : 11.6 Mb/s
    18. Width                          : 1 920 pixels
    19. Height                         : 816 pixels
    20. Display aspect ratio           : 2.35:1
    21. Frame rate mode                : Constant
    22. Frame rate                     : 23.976 FPS
    23. Color space                    : YUV
    24. Chroma subsampling             : 4:2:0
    25. Bit depth                      : 8 bits
    26. Scan type                      : Progressive
    27. Bits/(Pixel*Frame)             : 0.309
    28. Stream size                    : 11.4 GiB (87%)
    29. Title                          : BluRay.1080p.x264
    30. Writing library                : x264 core 88 r1471 1144615
    31. Encoding settings              : cabac=1 / ref=5 / deblock=1:-3:-3 / analyse=0x3:0x113 / me=umh / subme=10 / psy=1 / psy_rd=1.05:0.10 / mixed_ref=1 / me_range=32 / chroma_me=1 / trellis=2 / 8x8dct=1 / cqm=2 / deadzone=21,11 / fast_pskip=0 / chroma_qp_offset=-2 / threads=12 / sliced_threads=0 / nr=0 / decimate=1 / mbaff=0 / constrained_intra=0 / bframes=3 / b_pyramid=2 / b_adapt=2 / b_bias=0 / direct=3 / wpredb=1 / wpredp=2 / keyint=250 / keyint_min=25 / scenecut=40 / intra_refresh=0 / rc_lookahead=50 / rc=2pass / mbtree=1 / bitrate=11606 / ratetol=2.0 / qcomp=0.70 / qpmin=10 / qpmax=51 / qpstep=4 / cplxblur=20.0 / qblur=0.5 / vbv_maxrate=50000 / vbv_bufsize=50000 / ip_ratio=1.40 / aq=1:1.00

    32. Audio #1
    33. ID                             : 2
    34. Format                         : AC-3
    35. Format/Info                    : Audio Coding 3
    36. Commercial name                : Dolby Digital
    37. Codec ID                       : A_AC3
    38. Duration                       : 2 h 20 min
    39. Bit rate mode                  : Constant
    40. Bit rate                       : 192 kb/s
    41. Channel(s)                     : 2 channels
    42. Channel layout                 : L R
    43. Sampling rate                  : 48.0 kHz
    44. Frame rate                     : 31.250 FPS (1536 SPF)
    45. Bit depth                      : 16 bits
    46. Compression mode               : Lossy
    47. Delay relative to video        : 12 ms
    48. Stream size                    : 193 MiB (1%)
    49. Title                          : 中录京译DD2.0

    50. Audio #2
    51. ID                             : 3
    52. Format                         : DTS
    53. Format/Info                    : Digital Theater Systems
    54. Codec ID                       : A_DTS
    55. Duration                       : 2 h 20 min
    56. Bit rate mode                  : Constant
    57. Bit rate                       : 1 509 kb/s
    58. Channel(s)                     : 6 channels
    59. Channel layout                 : C L R Ls Rs LFE
    60. Sampling rate                  : 48.0 kHz
    61. Frame rate                     : 93.750 FPS (512 SPF)
    62. Bit depth                      : 24 bits
    63. Compression mode               : Lossy
    64. Stream size                    : 1.48 GiB (11%)
    65. Title                          : 英语DTS5.1
    复制代码



    截图








    链接:https://pan.baidu.com/s/1gwChzRQgsGOMnnvrLeguIg



    购买主题 已有 5 人购买  本主题需向作者支付 10 大洋 才能浏览
    回复

    使用道具 举报

  • TA的每日心情
    开心
    2020-10-27 15:38
  • 签到天数: 5 天

    [LV.2]偶尔看看I

    0

    主题

    1042

    帖子

    178

    积分

    高级影迷

    Rank: 4

    积分
    178
    发表于 2021-9-10 20:39:37 | 显示全部楼层
    哈哈哈哈哈哈哈哈。
    回复

    使用道具 举报

  • TA的每日心情
    擦汗
    3 小时前
  • 签到天数: 155 天

    [LV.7]常住居民III

    0

    主题

    922

    帖子

    319

    积分

    超级影迷

    Rank: 6Rank: 6

    积分
    319

    小土豪勋章

    发表于 2021-9-10 22:18:10 | 显示全部楼层
    感谢分享经典电影
    回复

    使用道具 举报

  • TA的每日心情
    开心
    12 小时前
  • 签到天数: 187 天

    [LV.7]常住居民III

    3

    主题

    2337

    帖子

    260

    积分

    超级影迷

    Rank: 6Rank: 6

    积分
    260
    发表于 2021-9-11 00:06:46 | 显示全部楼层
    感谢分享。。。。。。
    回复

    使用道具 举报

  • TA的每日心情
    慵懒
    12 小时前
  • 签到天数: 111 天

    [LV.6]常住居民II

    0

    主题

    1308

    帖子

    223

    积分

    高级影迷

    Rank: 4

    积分
    223
    发表于 2021-9-11 00:13:34 | 显示全部楼层
    感谢分享。。。。。。
    回复

    使用道具 举报

  • TA的每日心情

    12 小时前
  • 签到天数: 461 天

    [LV.9]以坛为家II

    4

    主题

    2880

    帖子

    176

    积分

    高级影迷

    Rank: 4

    积分
    176
    发表于 2021-9-11 00:15:30 | 显示全部楼层

    感谢分享。。。。。。
    回复

    使用道具 举报

  • TA的每日心情
    奋斗
    9 小时前
  • 签到天数: 131 天

    [LV.7]常住居民III

    0

    主题

    934

    帖子

    65

    积分

    初级影迷

    Rank: 2

    积分
    65
    发表于 2021-9-11 02:54:20 | 显示全部楼层
    感谢分享!
    回复

    使用道具 举报

  • TA的每日心情
    开心
    12 小时前
  • 签到天数: 1011 天

    [LV.10]以坛为家III

    9

    主题

    1683

    帖子

    98

    积分

    中级影迷

    Rank: 3Rank: 3

    积分
    98
    发表于 2021-9-11 08:12:33 | 显示全部楼层
    其实不大爱看这种运动类的电影。
    回复

    使用道具 举报

  • TA的每日心情
    无聊
    昨天 10:44
  • 签到天数: 63 天

    [LV.6]常住居民II

    20

    主题

    719

    帖子

    135

    积分

    中级影迷

    Rank: 3Rank: 3

    积分
    135
    发表于 2021-9-11 10:31:25 | 显示全部楼层
    感谢分享
    回复

    使用道具 举报

  • TA的每日心情
    无聊
    12 小时前
  • 签到天数: 613 天

    [LV.9]以坛为家II

    98

    主题

    2427

    帖子

    325

    积分

    超级影迷

    Rank: 6Rank: 6

    积分
    325
    发表于 2021-9-11 14:32:24 | 显示全部楼层
    运动传记,不错啊
    回复

    使用道具 举报

    您需要登录后才可以回帖 登录 | 立即注册

    本版积分规则

    QQ|Archiver|手机版|小黑屋|影迷乐园

    GMT+8, 2021-9-28 12:46 , Processed in 0.121499 second(s), 28 queries .

    Powered by Discuz! X3.4

    Copyright © 2001-2020, Tencent Cloud.

    快速回复 返回顶部 返回列表