请选择 进入手机版 | 继续访问电脑版

YMLY-影迷乐园-特效字幕 蓝光原盘 1080P 高清动漫电影电视剧

 找回密码
 立即注册
搜索
查看: 202|回复: 23

[日本] [百度][1976][追捕][国日4语.中文字幕][14.4GB][MKV][君よ憤怒の河を渉れ.1976.BluRay.1080p.x264.DD.4Audios]

[复制链接]
  • TA的每日心情
    奋斗
    5 小时前
  • 签到天数: 58 天

    [LV.5]常住居民I

    20

    主题

    135

    帖子

    123

    积分

    中级影迷

    Rank: 3Rank: 3

    积分
    123
    发表于 2021-9-13 17:42:29 | 显示全部楼层 |阅读模式
    俄版蓝光自压,重新剪辑了上译混央视,内有单独的音轨,
    附带老版央视及上译混日语




    导演: 佐藤纯弥
    编剧: 田坂启 / 西村寿行
    主演: 高仓健 / 原田芳雄 / 西村晃 / 中野良子 / 田中邦卫 / 更多...
    类型: 剧情 / 动作 / 犯罪
    制片国家/地区: 日本
    语言: 日语
    上映日期: 1978(中国大陆) / 1976-02-11(日本)
    片长: 151分钟
    又名: 越过愤怒的河 / 你一定要趟过愤怒的河 / Arrest / Manhunt / Hot Pursuit / Big Pursuit in Hokkaido
    IMDb: tt0327002

    追捕的剧情简介 · · · · · ·
      为人正直的检查官杜丘(高仓健 饰)被人控告犯有抢劫、强奸罪,自知清白的他为了洗清冤屈,开始了一边躲避警察追捕、一边查找事实真相的逃亡。
      途中,杜丘于山中冒险救下牧场主的女儿真由美(中野良子 饰),两人生出真情。在真由美及其父亲的帮助下,历尽艰险的杜丘终于拨开重重迷雾,在一家精神 病院,他找到了诬告自己的横路进二,但对方已神智不清。为了将其中隐情一一揭出,杜丘装病住进这家医院,开始小心翼翼的调查求证,巨大的政治阴谋遂即浮出水面。

    1. Format                         : Matroska
    2. Format version                 : Version 4
    3. File size                      : 14.5 GiB
    4. Duration                       : 2 h 31 min
    5. Overall bit rate mode          : Variable
    6. Overall bit rate               : 13.7 Mb/s
    7. Encoded date                   : UTC 2021-09-13 07:16:38

    8. Video
    9. ID                             : 1
    10. Format                         : AVC
    11. Format/Info                    : Advanced Video Codec
    12. Format profile                 : High@L4.1
    13. Format settings                : CABAC / 5 Ref Frames
    14. Format settings, CABAC         : Yes
    15. Format settings, ReFrames      : 5 frames
    16. Codec ID                       : V_MPEG4/ISO/AVC
    17. Duration                       : 2 h 31 min
    18. Bit rate                       : 11.3 Mb/s
    19. Width                          : 1 920 pixels
    20. Height                         : 1 080 pixels
    21. Display aspect ratio           : 16:9
    22. Frame rate mode                : Constant
    23. Frame rate                     : 23.976 (24000/1001) FPS
    24. Color space                    : YUV
    25. Chroma subsampling             : 4:2:0
    26. Bit depth                      : 8 bits
    27. Scan type                      : Progressive
    28. Bits/(Pixel*Frame)             : 0.227
    29. Stream size                    : 11.9 GiB (82%)
    30. Title                          : BluRay.1080p.x264
    31. Writing library                : x264 core 161 r3048 b86ae3c
    32. Encoding settings              : opencl=1 / cabac=1 / ref=5 / deblock=1:0:0 / analyse=0x3:0x113 / me=umh / subme=8 / psy=1 / psy_rd=1.00:0.25 / mixed_ref=1 / me_range=16 / chroma_me=1 / trellis=1 / 8x8dct=1 / cqm=0 / deadzone=6,6 / fast_pskip=1 / chroma_qp_offset=-4 / threads=18 / lookahead_threads=3 / sliced_threads=0 / nr=0 / decimate=0 / interlaced=0 / bluray_compat=0 / constrained_intra=0 / bframes=3 / b_pyramid=2 / b_adapt=2 / b_bias=0 / direct=3 / weightb=1 / open_gop=0 / weightp=2 / keyint=600 / keyint_min=1 / scenecut=40 / intra_refresh=0 / rc_lookahead=50 / rc=crf / mbtree=1 / crf=21.0 / qcomp=0.80 / qpmin=0 / qpmax=60 / qpstep=4 / ip_ratio=1.10 / aq=1:0.50

    33. Audio #1
    34. ID                             : 2
    35. Format                         : AC-3
    36. Format/Info                    : Audio Coding 3
    37. Commercial name                : Dolby Digital
    38. Codec ID                       : A_AC3
    39. Duration                       : 2 h 31 min
    40. Bit rate mode                  : Constant
    41. Bit rate                       : 448 kb/s
    42. Channel(s)                     : 2 channels
    43. Channel layout                 : L R
    44. Sampling rate                  : 48.0 kHz
    45. Frame rate                     : 31.250 FPS (1536 SPF)
    46. Bit depth                      : 16 bits
    47. Compression mode               : Lossy
    48. Stream size                    : 484 MiB (3%)
    49. Title                          : 上译混央视


    50. Audio #2
    51. ID                             : 3
    52. Format                         : AC-3
    53. Format/Info                    : Audio Coding 3
    54. Commercial name                : Dolby Digital
    55. Codec ID                       : A_AC3
    56. Duration                       : 2 h 31 min
    57. Bit rate mode                  : Constant
    58. Bit rate                       : 448 kb/s
    59. Channel(s)                     : 2 channels
    60. Channel layout                 : L R
    61. Sampling rate                  : 48.0 kHz
    62. Frame rate                     : 31.250 FPS (1536 SPF)
    63. Bit depth                      : 16 bits
    64. Compression mode               : Lossy
    65. Stream size                    : 484 MiB (3%)
    66. Title                          : 央视


    67. Audio #3
    68. ID                             : 4
    69. Format                         : AC-3
    70. Format/Info                    : Audio Coding 3
    71. Commercial name                : Dolby Digital
    72. Codec ID                       : A_AC3
    73. Duration                       : 2 h 31 min
    74. Bit rate mode                  : Constant
    75. Bit rate                       : 448 kb/s
    76. Channel(s)                     : 2 channels
    77. Channel layout                 : L R
    78. Sampling rate                  : 48.0 kHz
    79. Frame rate                     : 31.250 FPS (1536 SPF)
    80. Bit depth                      : 16 bits
    81. Compression mode               : Lossy
    82. Stream size                    : 484 MiB (3%)
    83. Title                          : 上译混日语

    84. Audio #4
    85. ID                             : 5
    86. Format                         : FLAC
    87. Format/Info                    : Free Lossless Audio Codec
    88. Codec ID                       : A_FLAC
    89. Duration                       : 2 h 31 min
    90. Bit rate mode                  : Variable
    91. Bit rate                       : 1 090 kb/s
    92. Channel(s)                     : 2 channels
    93. Channel layout                 : L R
    94. Sampling rate                  : 48.0 kHz
    95. Frame rate                     : 11.719 FPS (4096 SPF)
    96. Bit depth                      : 24 bits
    97. Compression mode               : Lossless
    98. Stream size                    : 1.15 GiB (8%)
    99. Title                          : 日语
    复制代码




    截图:








    链接:https://pan.baidu.com/s/1oZ3Z7pyvMwSuPcm00L_T8w



    购买主题 已有 4 人购买  本主题需向作者支付 20 大洋 才能浏览
    回复

    使用道具 举报

  • TA的每日心情
    开心
    昨天 01:10
  • 签到天数: 159 天

    [LV.7]常住居民III

    4

    主题

    1270

    帖子

    111

    积分

    中级影迷

    Rank: 3Rank: 3

    积分
    111
    QQ
    发表于 2021-9-14 11:17:44 | 显示全部楼层
    经典电影,感谢分享。
    回复

    使用道具 举报

  • TA的每日心情
    奋斗
    5 小时前
  • 签到天数: 262 天

    [LV.8]以坛为家I

    0

    主题

    796

    帖子

    79

    积分

    中级影迷

    Rank: 3Rank: 3

    积分
    79
    发表于 2021-9-14 11:43:31 | 显示全部楼层
    这片儿有点年头了
    回复

    使用道具 举报

  • TA的每日心情
    擦汗
    4 小时前
  • 签到天数: 129 天

    [LV.7]常住居民III

    38

    主题

    1803

    帖子

    313

    积分

    超级影迷

    Rank: 6Rank: 6

    积分
    313
    发表于 2021-9-14 13:52:30 | 显示全部楼层
    感谢分享好资源
    回复

    使用道具 举报

  • TA的每日心情
    开心
    昨天 10:45
  • 签到天数: 478 天

    [LV.9]以坛为家II

    11

    主题

    1428

    帖子

    247

    积分

    高级影迷

    Rank: 4

    积分
    247
    发表于 2021-9-14 14:25:56 | 显示全部楼层
    高仓健的片子不错
    回复

    使用道具 举报

  • TA的每日心情
    开心
    2021-9-14 19:33
  • 签到天数: 36 天

    [LV.5]常住居民I

    0

    主题

    373

    帖子

    88

    积分

    中级影迷

    Rank: 3Rank: 3

    积分
    88
    发表于 2021-9-14 19:14:07 | 显示全部楼层
    谢谢楼主分享
    回复

    使用道具 举报

  • TA的每日心情
    开心
    昨天 00:19
  • 签到天数: 336 天

    [LV.8]以坛为家I

    0

    主题

    1771

    帖子

    273

    积分

    超级影迷

    Rank: 6Rank: 6

    积分
    273
    发表于 2021-9-14 21:21:05 | 显示全部楼层
    经典的片子,多谢楼主
    回复

    使用道具 举报

  • TA的每日心情
    开心
    6 小时前
  • 签到天数: 154 天

    [LV.7]常住居民III

    0

    主题

    1427

    帖子

    73

    积分

    中级影迷

    Rank: 3Rank: 3

    积分
    73
    发表于 2021-9-15 04:56:04 | 显示全部楼层
    很不错的电影啊。
    回复

    使用道具 举报

  • TA的每日心情

    昨天 22:24
  • 签到天数: 114 天

    [LV.6]常住居民II

    2

    主题

    1301

    帖子

    217

    积分

    高级影迷

    Rank: 4

    积分
    217
    发表于 2021-9-15 05:04:01 | 显示全部楼层
    配音阵容超级豪华
    回复

    使用道具 举报

  • TA的每日心情
    开心
    6 小时前
  • 签到天数: 182 天

    [LV.7]常住居民III

    23

    主题

    1108

    帖子

    151

    积分

    高级影迷

    Rank: 4

    积分
    151
    发表于 2021-9-15 06:36:20 | 显示全部楼层
    感谢版主分享。
    回复

    使用道具 举报

    您需要登录后才可以回帖 登录 | 立即注册

    本版积分规则

    QQ|Archiver|手机版|小黑屋|影迷乐园

    GMT+8, 2021-9-28 12:59 , Processed in 0.084997 second(s), 28 queries .

    Powered by Discuz! X3.4

    Copyright © 2001-2020, Tencent Cloud.

    快速回复 返回顶部 返回列表