请选择 进入手机版 | 继续访问电脑版

YMLY-影迷乐园-特效字幕 蓝光原盘 1080P 高清动漫电影电视剧

 找回密码
 立即注册
搜索
查看: 428|回复: 29

[WEB-DL] [阿里+百度][1999][1080P][黄河绝恋][内封简中字幕][3.19GB][MKV][Grief.Over.The.Yellow.1999.1080p.WEB-DL.x264.AAC-Einrouse]

[复制链接]
  • TA的每日心情
    奋斗
    2022-6-7 19:43
  • 签到天数: 82 天

    [LV.6]常住居民II

    72

    主题

    2116

    帖子

    1431

    积分

    资深影迷

    Rank: 10Rank: 10Rank: 10

    积分
    1431

    小土豪勋章土豪勋章

    发表于 2022-5-10 15:46:52 | 显示全部楼层 |阅读模式
    ---来源于网络,感谢原作者Einrouse---
    ---此为105分钟的完整版,比HDTV版时长要长,而且清晰度也可以---

    文件名:黄河绝恋.Grief.Over.The.Yellow.1999.1080p.WEB-DL.x264.AAC-Einrouse


    ◎译  名 Grief Over the Yellow River / The Legend of the Yellow River / Heart of China
    ◎片  名 黄河绝恋
    ◎年  代 1999
    ◎产  地 中国大陆
    ◎类  别 剧情 / 战争
    ◎语  言 汉语普通话
    ◎上映日期 1999-09-29(匈牙利)
    ◎豆瓣评星 ★★★★☆
    ◎豆瓣评分 7.6/10 from 40,963 users
    ◎豆瓣链接 https://movie.douban.com/subject/1298874/
    ◎片  长 105分钟
    ◎导  演 冯小宁 / Xiaoning Feng
    ◎演  员 宁静 / Jing Ning
          保罗·克塞 / Paul Kersey
          王新军 / Xinjun Wang
          涂们 / Tumen
          李明 / Ming Li
    ◎编  剧 冯小宁 / Xiaoning Feng
    ◎音  乐 李戈 / Ge Li

    ◎简  介 

      二战后期,盟军飞行员欧文(Paul Kersey)因飞机被日军军舰击中被迫降落在长城脚下,生命危急之际,他被八路军和当地老百姓救下,不久,战士黑子(王新军)和懂英文的女军医安洁(宁静)奉命护送他前往根据地。
      为渡过黄河,黑子先带欧文和安洁潜回他的家乡,徒生波折险些丧命。通过与安洁的交流,欧文对中国有了更深的了解,他渐渐爱上美丽、聪慧、坚强的安洁。黄河近在眼前,就在他们以为可以顺利渡过时,日军突至对他们进行了疯狂的阻击。

    ◎获奖情况 

      第19届中国电影金鸡奖 (1999)
      最佳故事片(提名)
      最佳女主角 宁静
      最佳特技美术奖 冯小宁
      最佳音乐 李戈

      第23届大众电影百花奖 (2000)
      最佳故事片

    ◎幕后揭秘

      《黄河绝恋》是冯小宁导演继《红河谷》之后创作的又一部以战争和爱情为主题的影片。同他以往的许多作品一样,冯小宁在片中贯穿对战争与人性的思索,把主人公置于生死绝地,在冷酷无情的环境中突出了他们心中燃烧着的生命火焰。影片围绕惊险的护送过程展开,充分展示了人物之间的个性冲突和心灵沟通,在汹涌澎湃的黄河壶口瀑布边演绎了一曲雄浑壮烈的赞歌。全片以回忆为线索,创意独到、场面壮观、风光瑰丽,强烈激昂地讴歌了中华民族抵御外来侵略者所表现出来的不屈不挠的英雄气概和对国际友人的真挚关爱,是一部融思想性、艺术性、观赏性于一体的优秀影视作品。
    INFO
    黄河绝恋.Grief.Over.The.Yellow.1999.1080p.WEB-DL.x264.AAC-Einrouse.mkv
    容器:Matroska
    总码率:4 316 kb/s
    大小:3.19 GiB
    时长:1 h 45 min 49 s 125 ms

    视频(1):AVC
    Profile:High@L5
    码率:4 186 kb/s
    文件大小:3.09 GiB (97%)
    分辨率:1920x1080
    画面比例:16:9(1.778)
    像素宽高比:1.000
    帧率:25.000 FPS
    色彩空间:YUV
    色度抽样:4:2:0
    位深度:8 bits
    扫描方式:逐行扫描
    总帧数:158726
    编码库:x264 core 148
    编码设置:cabac=1 / ref=5 / deblock=1:0:0 / analyse=0x3:0x113 / me=hex / subme=8 / psy=1 / psy_rd=1.00:0.00 / mixed_ref=1 / me_range=16 / chroma_me=1 / trellis=2 / 8x8dct=1 / cqm=0 / deadzone=21,11 / fast_pskip=1 / chroma_qp_offset=-2 / threads=34 / lookahead_threads=5 / sliced_threads=0 / nr=0 / decimate=1 / interlaced=0 / bluray_compat=0 / constrained_intra=0 / bframes=3 / b_pyramid=2 / b_adapt=1 / b_bias=0 / direct=3 / weightb=1 / open_gop=0 / weightp=2 / keyint=250 / keyint_min=25 / scenecut=40 / intra_refresh=0 / rc_lookahead=50 / rc=crf / mbtree=1 / crf=25.0 / qcomp=0.60 / qpmin=0 / qpmax=69 / qpstep=4 / vbv_maxrate=5000 / vbv_bufsize=10000 / crf_max=0.0 / nal_hrd=none / filler=0 / ip_ratio=1.40 / aq=1:1.00

    音频(2):AAC
    大小:96.9 MiB (3%)
    码率:128 kb/s
    采样率:44.1 kHz
    声道数:2

    ====详细信息====
    ID                                       : 1
    Format                                   : AVC
    Format/Info                              : Advanced Video Codec
    Format profile                           : High@L5
    Format settings, CABAC                   : Yes
    Format settings, ReFrames                : 5 frames
    Codec ID                                 : V_MPEG4/ISO/AVC
    Duration                                 : 1 h 45 min
    Bit rate                                 : 4 186 kb/s
    Width                                    : 1 920 pixels
    Height                                   : 1 080 pixels
    Display aspect ratio                     : 16:9
    Frame rate mode                          : Constant
    Frame rate                               : 25.000 FPS
    Color space                              : YUV
    Chroma subsampling                       : 4:2:0
    Bit depth                                : 8 bits
    Scan type                                : Progressive
    Bits/(Pixel*Frame)                       : 0.081
    Stream size                              : 3.09 GiB (97%)
    Writing library                          : x264 core 148
    Encoding settings                        : cabac=1 / ref=5 / deblock=1:0:0 / analyse=0x3:0x113 / me=hex / subme=8 / psy=1 / psy_rd=1.00:0.00 / mixed_ref=1 / me_range=16 / chroma_me=1 / trellis=2 / 8x8dct=1 / cqm=0 / deadzone=21,11 / fast_pskip=1 / chroma_qp_offset=-2 / threads=34 / lookahead_threads=5 / sliced_threads=0 / nr=0 / decimate=1 / interlaced=0 / bluray_compat=0 / constrained_intra=0 / bframes=3 / b_pyramid=2 / b_adapt=1 / b_bias=0 / direct=3 / weightb=1 / open_gop=0 / weightp=2 / keyint=250 / keyint_min=25 / scenecut=40 / intra_refresh=0 / rc_lookahead=50 / rc=crf / mbtree=1 / crf=25.0 / qcomp=0.60 / qpmin=0 / qpmax=69 / qpstep=4 / vbv_maxrate=5000 / vbv_bufsize=10000 / crf_max=0.0 / nal_hrd=none / filler=0 / ip_ratio=1.40 / aq=1:1.00
    Default                                  : Yes
    Forced                                   : No

    ID                                       : 2
    Format                                   : AAC
    Format/Info                              : Advanced Audio Codec
    Format profile                           : LC
    Codec ID                                 : A_AAC
    Duration                                 : 1 h 45 min
    Bit rate                                 : 128 kb/s
    Channel(s)                               : 2 channels
    Channel positions                        : Front: L R
    Sampling rate                            : 44.1 kHz
    Frame rate                               : 43.066 FPS (1024 spf)
    Compression mode                         : Lossy
    Delay relative to video                  : -46 ms
    Stream size                              : 96.9 MiB (3%)
    Default                                  : Yes
    Forced                                   : No
    SCREENS




    购买主题 已有 5 人购买  本主题需向作者支付 60 大洋 才能浏览
    1,如有链接失效,可发站内消息给我,看到后会补上新链接!一定是发消息!帖子下留言我很可能看不到!
    2,我发的所有电影都是已经刮削好了的,文件夹里除了电影、字幕文件外,还包含NFO信息和海报,可以直接支持KODI、PLEX、EMBY、INFUSE等软件直接本地读取并加载海报墙,不需要挂梯子联网刮削!对海报墙没需求的亦可直接删除!
    3,我是个人用户,非管理组,发帖纯属个人爱好。别再问我为什么不用百度和115网盘发了,论坛对分享平台没有限制!已咨询过版主,使用115、百度以外的网盘不违规!
    回复

    使用道具 举报

  • TA的每日心情
    开心
    2 小时前
  • 签到天数: 179 天

    [LV.7]常住居民III

    2

    主题

    1771

    帖子

    307

    积分

    超级影迷

    Rank: 6Rank: 6

    积分
    307
    发表于 2022-5-10 21:58:06 | 显示全部楼层
    谢谢楼主分享优质资源,希望影迷乐园越办越好!~
    回复

    使用道具 举报

  • TA的每日心情
    开心
    8 小时前
  • 签到天数: 550 天

    [LV.9]以坛为家II

    0

    主题

    6683

    帖子

    351

    积分

    超级影迷

    Rank: 6Rank: 6

    积分
    351
    发表于 2022-5-11 12:21:41 | 显示全部楼层
    感谢分享!
    回复

    使用道具 举报

  • TA的每日心情
    擦汗
    6 天前
  • 签到天数: 330 天

    [LV.8]以坛为家I

    114

    主题

    3953

    帖子

    575

    积分

    专业影迷

    Rank: 8Rank: 8

    积分
    575
    发表于 2022-5-11 12:31:20 | 显示全部楼层

    感谢楼主的分享
    回复

    使用道具 举报

  • TA的每日心情
    开心
    10 小时前
  • 签到天数: 1069 天

    [LV.10]以坛为家III

    0

    主题

    1392

    帖子

    154

    积分

    高级影迷

    Rank: 4

    积分
    154
    发表于 2022-5-11 15:39:28 | 显示全部楼层
    这可是部老片子了
    回复

    使用道具 举报

  • TA的每日心情
    难过
    16 小时前
  • 签到天数: 322 天

    [LV.8]以坛为家I

    15

    主题

    2665

    帖子

    171

    积分

    高级影迷

    Rank: 4

    积分
    171
    发表于 2022-5-12 00:54:05 | 显示全部楼层
    感谢分享~~
    回复

    使用道具 举报

  • TA的每日心情
    开心
    4 小时前
  • 签到天数: 82 天

    [LV.6]常住居民II

    0

    主题

    934

    帖子

    115

    积分

    中级影迷

    Rank: 3Rank: 3

    积分
    115
    发表于 2022-5-12 08:06:41 | 显示全部楼层
    谢谢楼主分享
    回复

    使用道具 举报

  • TA的每日心情
    奋斗
    6 天前
  • 签到天数: 51 天

    [LV.5]常住居民I

    1

    主题

    538

    帖子

    438

    积分

    超级影迷

    Rank: 6Rank: 6

    积分
    438
    发表于 2022-5-12 12:56:46 | 显示全部楼层
    狗日的炸冰川
    回复

    使用道具 举报

  • TA的每日心情
    开心
    昨天 08:18
  • 签到天数: 40 天

    [LV.5]常住居民I

    0

    主题

    525

    帖子

    33

    积分

    初级影迷

    Rank: 2

    积分
    33
    发表于 2022-5-13 08:30:13 | 显示全部楼层

    谢谢分享
    非常好
    回复

    使用道具 举报

  • TA的每日心情
    奋斗
    11 小时前
  • 签到天数: 56 天

    [LV.5]常住居民I

    5

    主题

    656

    帖子

    92

    积分

    中级影迷

    Rank: 3Rank: 3

    积分
    92
    发表于 2022-5-15 00:27:38 | 显示全部楼层
    经典电影,感谢分享。
    回复

    使用道具 举报

    您需要登录后才可以回帖 登录 | 立即注册

    本版积分规则

    QQ|Archiver|手机版|小黑屋|影迷乐园

    GMT+8, 2022-7-7 18:45 , Processed in 0.090821 second(s), 28 queries .

    Powered by Discuz! X3.4

    Copyright © 2001-2020, Tencent Cloud.

    快速回复 返回顶部 返回列表