请选择 进入手机版 | 继续访问电脑版

YMLY-影迷乐园-特效字幕 蓝光原盘 1080P 高清动漫电影电视剧

 找回密码
 立即注册
搜索
查看: 167|回复: 24

[大陆] [百度][1988][怀旧剧场:好爸爸,坏爸爸][6集全][国语无字][MKV][3GB][576p.x264.50fps]

[复制链接]
  • TA的每日心情

    2022-1-23 09:00
  • 签到天数: 55 天

    [LV.5]常住居民I

    71

    主题

    321

    帖子

    2887

    积分

    稀有影迷

    Rank: 12Rank: 12Rank: 12

    积分
    2887
    发表于 4 天前 | 显示全部楼层 |阅读模式



    ◎译  名 好爸爸,坏爸爸
    ◎年  代 1988
    ◎产  地 中国大陆
    ◎类  别 儿童
    ◎语  言 汉语普通话
    ◎上映日期 1988(中国大陆)
    ◎IMDb链接 https://www.imdb.com/title//
    ◎豆瓣评分 8.0/10 (3551人评价)
    ◎豆瓣链接 https://movie.douban.com/subject/2156753/
    ◎集  数 6
    ◎片  长 60分钟
    ◎导  演 尹力 Li Yin (id:1276060)
    ◎编  剧 诸葛怡 Yi Zhuge (id:1369090)
    ◎演  员 赵有亮 Youliang Zhao (id:1313722)
           李静莉 Jingli Li (id:1341014)
           金萍 Ping Jin (id:1333023)
           刘为光 Weiguang Liu (id:1385125)
           李建国 Jianguo Li (id:1385126)
           孙晓璞 Xiaopu Sun (id:1369120)

    ◎简  介
      本剧以一年级小学生黄点点(孙晓璞饰)的视角和生活为主线,由《我的蝈蝈》、《三个五分》、《会飞的猫》、《小小世界》、《五十八下》和《就是好爸爸》六个情节相对独立的小故事构成。聪明调皮的点点刚上小学,机灵好动,热爱未知世界的一切。爸爸(赵有亮饰)是建筑设计工程师,妈妈(李静莉饰)是国际航班的空中服务员。一次,爸爸要参加设计比赛,由此展开了一段段温馨满满的生活小故事。                                    
                                    六集儿童电视剧《好爸爸,坏爸爸》,由尹力执导,赵有亮、孙晓璞、李静莉等联袂主演。该剧荣获第九届全国优秀电视剧飞天奖儿童电视连续剧一等奖及优秀编剧奖。在网上被70-80年代生人誉为“最值得怀念的十部电视剧”之一。



    General
    Unique ID                      : 51718673089515462735570264066583778965 (0x26E8A77452D7305392547750D4C15695)
    Complete name                  : E:\电视剧\好爸爸坏爸爸\好爸爸坏爸爸03.会飞的猫.TVRip.x264.mkv
    Format                         : Matroska
    Format version                 : Version 4
    File size                      : 406 MiB
    Duration                       : 32 min 1 s
    Overall bit rate               : 1 773 kb/s
    Encoded date                   : UTC 2022-05-12 12:55:58
    Writing application            : mkvmerge v48.0.0 ('Fortress Around Your Heart') 64-bit
    Writing library                : libebml v1.4.0 + libmatroska v1.6.0

    Video
    ID                             : 1
    Format                         : AVC
    Format/Info                    : Advanced Video Codec
    Format profile                 : [email protected]
    Format settings                : CABAC / 5 Ref Frames
    Format settings, CABAC         : Yes
    Format settings, Reference fra : 5 frames
    Codec ID                       : V_MPEG4/ISO/AVC
    Duration                       : 32 min 1 s
    Bit rate                       : 1 514 kb/s
    Width                          : 720 pixels
    Height                         : 576 pixels
    Display aspect ratio           : 4:3
    Frame rate mode                : Constant
    Frame rate                     : 50.000 FPS
    Color space                    : YUV
    Chroma subsampling             : 4:2:0
    Bit depth                      : 8 bits
    Scan type                      : Progressive
    Bits/(Pixel*Frame)             : 0.073
    Stream size                    : 347 MiB (85%)
    Writing library                : x264 core 164 r3085 0bb85e8
    Encoding settings              : cabac=1 / ref=5 / deblock=1:-1:-1 / analyse=0x3:0x113 / me=hex / subme=8 / psy=1 / psy_rd=1.00:0.15 / mixed_ref=1 / me_range=16 / chroma_me=1 / trellis=2 / 8x8dct=1 / cqm=0 / deadzone=21,11 / fast_pskip=1 / chroma_qp_offset=-3 / threads=18 / lookahead_threads=3 / sliced_threads=0 / nr=0 / decimate=1 / interlaced=0 / bluray_compat=0 / constrained_intra=0 / bframes=3 / b_pyramid=2 / b_adapt=1 / b_bias=0 / direct=3 / weightb=1 / open_gop=0 / weightp=2 / keyint=250 / keyint_min=25 / scenecut=40 / intra_refresh=0 / rc_lookahead=50 / rc=crf / mbtree=1 / crf=22.0 / qcomp=0.60 / qpmin=0 / qpmax=69 / qpstep=4 / ip_ratio=1.40 / aq=1:1.00
    Language                       : Chinese
    Default                        : Yes
    Forced                         : No

    Audio
    ID                             : 2
    Format                         : MPEG Audio
    Format version                 : Version 1
    Format profile                 : Layer 2
    Codec ID                       : A_MPEG/L2
    Codec ID/Hint                  : MP2
    Duration                       : 32 min 1 s
    Bit rate mode                  : Constant
    Bit rate                       : 256 kb/s
    Channel(s)                     : 2 channels
    Sampling rate                  : 48.0 kHz
    Frame rate                     : 41.667 FPS (1152 SPF)
    Compression mode               : Lossy
    Stream size                    : 58.6 MiB (14%)
    Language                       : Chinese
    Default                        : Yes
    Forced                         : No

    购买主题 已有 5 人购买  本主题需向作者支付 30 大洋 才能浏览
    回复

    使用道具 举报

  • TA的每日心情
    开心
    昨天 00:02
  • 签到天数: 169 天

    [LV.7]常住居民III

    0

    主题

    1301

    帖子

    69

    积分

    初级影迷

    Rank: 2

    积分
    69
    发表于 4 天前 | 显示全部楼层
    放开我发WF发F GR G ;G 3 G G
    啊啊啊啊
    回复

    使用道具 举报

  • TA的每日心情
    开心
    9 小时前
  • 签到天数: 477 天

    [LV.9]以坛为家II

    0

    主题

    532

    帖子

    166

    积分

    高级影迷

    Rank: 4

    积分
    166
    发表于 4 天前 | 显示全部楼层
    谢谢分享好爸爸,坏爸爸
    回复

    使用道具 举报

  • TA的每日心情
    慵懒
    4 天前
  • 签到天数: 201 天

    [LV.7]常住居民III

    0

    主题

    334

    帖子

    37

    积分

    初级影迷

    Rank: 2

    积分
    37
    发表于 4 天前 | 显示全部楼层
    好爸爸,坏爸爸
    回复

    使用道具 举报

  • TA的每日心情
    开心
    21 小时前
  • 签到天数: 32 天

    [LV.5]常住居民I

    0

    主题

    367

    帖子

    33

    积分

    初级影迷

    Rank: 2

    积分
    33
    发表于 4 天前 | 显示全部楼层
    感谢楼主分享资源
    回复

    使用道具 举报

  • TA的每日心情
    擦汗
    昨天 15:12
  • 签到天数: 313 天

    [LV.8]以坛为家I

    110

    主题

    3773

    帖子

    530

    积分

    专业影迷

    Rank: 8Rank: 8

    积分
    530
    发表于 4 天前 | 显示全部楼层
    感谢分享好资源
    回复

    使用道具 举报

  • TA的每日心情
    开心
    3 小时前
  • 签到天数: 161 天

    [LV.7]常住居民III

    1

    主题

    3422

    帖子

    223

    积分

    高级影迷

    Rank: 4

    积分
    223
    发表于 4 天前 | 显示全部楼层
    感谢分享好资源
    回复

    使用道具 举报

  • TA的每日心情
    开心
    13 小时前
  • 签到天数: 356 天

    [LV.8]以坛为家I

    0

    主题

    4369

    帖子

    667

    积分

    专业影迷

    Rank: 8Rank: 8

    积分
    667
    发表于 4 天前 | 显示全部楼层
    感谢分享好资源
    回复

    使用道具 举报

  • TA的每日心情
    郁闷
    9 小时前
  • 签到天数: 338 天

    [LV.8]以坛为家I

    4

    主题

    735

    帖子

    814

    积分

    资深影迷

    Rank: 10Rank: 10Rank: 10

    积分
    814
    发表于 4 天前 | 显示全部楼层
    这个也太怀旧啦!没想到三十年前的东西,还依然可以看得到。
    回复

    使用道具 举报

  • TA的每日心情
    开心
    4 天前
  • 签到天数: 14 天

    [LV.3]偶尔看看II

    0

    主题

    88

    帖子

    44

    积分

    初级影迷

    Rank: 2

    积分
    44
    发表于 4 天前 | 显示全部楼层
    6666666666
    回复

    使用道具 举报

    您需要登录后才可以回帖 登录 | 立即注册

    本版积分规则

    QQ|Archiver|手机版|小黑屋|影迷乐园

    GMT+8, 2022-5-17 21:18 , Processed in 0.155494 second(s), 26 queries .

    Powered by Discuz! X3.4

    Copyright © 2001-2020, Tencent Cloud.

    快速回复 返回顶部 返回列表